<?xml version="1.0" standalone="no"?>
<!DOCTYPE svg PUBLIC "-//W3C//DTD SVG 1.1//EN" "http://www.w3.org/Graphics/SVG/1.1/DTD/svg11.dtd" >
<svg xmlns="http://www.w3.org/2000/svg">
<defs>
  <font id="rsuite-icon-font" horiz-adv-x="1531.25">
    <font-face font-family="rsuite-icon-font"
      units-per-em="1000" ascent="857"
      descent="143" />
    <missing-glyph horiz-adv-x="0" />
    <glyph glyph-name="weapp"
      unicode="&#xEA01;"
      horiz-adv-x="1000" d="M500 857C221.4285714285715 857 0 635.5714285714286 0 357C0 78.4285714285713 221.4285714285715 -143 500 -143C778.5714285714287 -143 1000 78.4285714285713 1000 357C1000 635.5714285714286 778.5714285714287 857 500 857zM792.8571428571429 399.8571428571429C771.4285714285713 364.1428571428571 735.7142857142857 335.5714285714286 692.8571428571428 321.2857142857142C692.8571428571428 321.2857142857142 692.8571428571428 321.2857142857142 692.8571428571428 321.2857142857142C685.7142857142857 321.2857142857142 678.5714285714286 321.2857142857142 671.4285714285713 321.2857142857142C642.8571428571428 321.2857142857142 621.4285714285714 342.7142857142857 635.7142857142857 364.1428571428571C642.8571428571428 385.5714285714285 657.1428571428571 399.8571428571429 678.5714285714284 407C714.2857142857142 421.2857142857142 735.7142857142857 449.8571428571428 735.7142857142857 478.4285714285714C735.7142857142857 521.2857142857142 692.8571428571428 557 642.8571428571428 557C592.8571428571428 557 549.9999999999999 521.2857142857142 549.9999999999999 478.4285714285714V235.5714285714285C549.9999999999999 178.4285714285713 514.2857142857142 128.4285714285713 464.2857142857142 99.8571428571428C428.5714285714286 78.4285714285713 400 71.2857142857142 364.2857142857143 71.2857142857142C264.2857142857143 71.2857142857142 185.7142857142857 142.7142857142857 185.7142857142857 235.5714285714286C185.7142857142857 264.1428571428572 192.8571428571428 292.7142857142858 207.1428571428571 314.1428571428571C228.5714285714286 349.8571428571429 264.2857142857142 378.4285714285715 307.1428571428571 392.7142857142857C307.1428571428571 392.7142857142857 307.1428571428571 392.7142857142857 307.1428571428571 392.7142857142857C314.2857142857142 392.7142857142857 321.4285714285714 399.8571428571429 328.5714285714285 399.8571428571429C357.1428571428571 399.8571428571429 378.5714285714285 378.4285714285714 364.2857142857142 357C364.2857142857143 328.4285714285715 350.0000000000001 314.1428571428571 328.5714285714286 307C328.5714285714286 307 321.4285714285715 307 321.4285714285715 307C285.7142857142857 292.7142857142857 264.2857142857143 264.1428571428571 264.2857142857143 235.5714285714286C264.2857142857143 192.7142857142858 307.1428571428572 157 357.1428571428572 157C407.1428571428572 157 450 192.7142857142858 450 235.5714285714286V478.4285714285714C450 535.5714285714286 485.7142857142857 585.5714285714286 535.7142857142858 614.1428571428571C571.4285714285714 635.5714285714286 600 642.7142857142858 635.7142857142858 642.7142857142858C735.7142857142858 642.7142857142858 814.2857142857143 571.2857142857142 814.2857142857143 478.4285714285714C814.2857142857143 449.8571428571429 807.1428571428572 421.2857142857143 792.8571428571429 399.8571428571429z" />
    <glyph glyph-name="web"
      unicode="&#xEA02;"
      horiz-adv-x="1000" d="M900 57V506.9999999999999H700.0000000000001V57H900zM650 307V506.9999999999999H100V307H650zM650 57V257H100V57H650zM900 757C957.1428571428572 757 1000 714.1428571428571 1000 657V57C1000 -0.1428571428571 957.1428571428572 -43 900 -43H100C42.8571428571429 -43 0 -0.1428571428571 0 57V657C0 714.1428571428571 42.8571428571429 757 100 757H900z" />
    <glyph glyph-name="target"
      unicode="&#xEA03;"
      horiz-adv-x="1000" d="M1000 378.4285714285714H935.7142857142856C928.5714285714286 599.8571428571429 742.8571428571429 785.5714285714286 521.4285714285714 792.7142857142857V857H478.5714285714286V792.7142857142857C257.1428571428572 785.5714285714286 71.4285714285714 599.8571428571429 64.2857142857143 378.4285714285714H0V342.7142857142857H64.2857142857143C71.4285714285714 114.1428571428571 257.1428571428572 -71.5714285714285 478.5714285714286 -78.7142857142857V-143H514.2857142857143V-78.7142857142857C742.8571428571429 -71.5714285714285 921.4285714285714 114.1428571428572 935.7142857142858 342.7142857142858H1000V378.4285714285714zM878.5714285714287 378.4285714285714H728.5714285714287C721.4285714285716 492.7142857142857 628.5714285714287 585.5714285714286 514.2857142857143 592.7142857142858V735.5714285714286C714.2857142857143 728.4285714285714 871.4285714285714 571.2857142857142 878.5714285714287 378.4285714285714zM642.8571428571429 335.5714285714286C635.7142857142858 271.2857142857144 585.7142857142857 221.2857142857142 521.4285714285714 214.1428571428571V228.4285714285714H478.5714285714286V214.1428571428571C414.2857142857143 221.2857142857142 364.2857142857143 271.2857142857144 357.1428571428572 335.5714285714286H371.4285714285715V378.4285714285714H357.1428571428572C364.2857142857143 442.7142857142857 414.2857142857143 492.7142857142857 478.5714285714286 499.8571428571428V485.5714285714286H514.2857142857143V499.8571428571428C585.7142857142857 492.7142857142857 635.7142857142858 442.7142857142857 642.8571428571429 378.4285714285714H628.5714285714287V342.7142857142857H642.8571428571429zM478.5714285714286 735.5714285714286V585.5714285714286C364.2857142857143 578.4285714285714 271.4285714285715 485.5714285714286 264.2857142857143 371.2857142857143H121.4285714285714C128.5714285714286 571.2857142857142 285.7142857142857 728.4285714285714 478.5714285714286 735.5714285714286zM121.4285714285714 335.5714285714286H271.4285714285715C278.5714285714286 221.2857142857142 371.4285714285714 128.4285714285715 485.7142857142857 121.2857142857142V-28.7142857142858C285.7142857142857 -14.4285714285714 128.5714285714286 142.7142857142857 121.4285714285714 335.5714285714286zM521.4285714285714 -21.5714285714287V128.4285714285713C635.7142857142858 135.5714285714285 728.5714285714286 228.4285714285714 735.7142857142858 342.7142857142857H885.7142857142858C871.4285714285714 142.7142857142857 714.2857142857143 -14.4285714285714 521.4285714285714 -21.5714285714287z" />
    <glyph glyph-name="bar-chart-ranking"
      unicode="&#xEA04;"
      horiz-adv-x="1000" d="M0 -78.71875H1000V-143H0V-78.71875zM750 357H935.7187499999998V42.7187499999999H750V357zM0 857H185.71875V42.71875H0V857zM250 607H435.71875V42.71875H250V607zM500 478.4375H685.7187499999999V42.7187499999999H500V478.4375z" />
    <glyph glyph-name="multiple-lines-chart"
      unicode="&#xEA05;"
      horiz-adv-x="1000" d="M64.2857142857143 -78.7142857142857V857H0V-143H1000V-78.7142857142857zM178.5714285714286 64.1428571428571C171.4285714285714 64.1428571428571 164.2857142857143 64.1428571428571 157.1428571428572 71.2857142857142C142.8571428571429 85.5714285714286 142.8571428571429 99.8571428571429 157.1428571428572 114.1428571428571L335.7142857142857 292.7142857142857L471.4285714285714 199.8571428571428L871.4285714285714 649.8571428571428C885.7142857142857 664.1428571428571 900 664.1428571428571 914.2857142857142 649.8571428571428C928.5714285714284 635.5714285714284 928.5714285714284 621.2857142857142 914.2857142857142 606.9999999999999L478.5714285714286 121.2857142857142L342.8571428571429 214.1428571428571L200 71.2857142857142C192.8571428571428 64.1428571428571 185.7142857142857 64.1428571428571 178.5714285714286 64.1428571428571zM892.8571428571429 178.4285714285715C885.7142857142858 178.4285714285715 878.5714285714287 178.4285714285715 871.4285714285714 185.5714285714286L535.7142857142858 535.5714285714286L428.5714285714286 442.7142857142857L321.4285714285715 564.1428571428571L178.5714285714286 435.5714285714286C164.2857142857143 428.4285714285715 150 428.4285714285715 135.7142857142857 442.7142857142857C121.4285714285714 457 128.5714285714286 478.4285714285714 135.7142857142857 485.5714285714286L321.4285714285715 649.8571428571429L435.7142857142857 528.4285714285713L542.8571428571429 621.2857142857142L914.2857142857144 228.4285714285714C928.5714285714286 214.1428571428571 928.5714285714286 192.7142857142857 914.2857142857144 185.5714285714286C907.1428571428572 185.5714285714286 900.0000000000001 178.4285714285715 892.8571428571429 178.4285714285715z" />
    <glyph glyph-name="alipay"
      unicode="&#xEA06;"
      horiz-adv-x="1000" d="M457.1428571428572 214.1428571428571C378.5714285714286 249.8571428571429 307.1428571428572 299.8571428571429 221.4285714285715 299.8571428571429C185.7142857142857 299.8571428571429 157.1428571428572 299.8571428571429 121.4285714285715 278.4285714285715C71.4285714285714 257 42.8571428571429 228.4285714285714 35.7142857142857 178.4285714285715C28.5714285714286 135.5714285714286 71.4285714285714 78.4285714285713 107.1428571428571 64.1428571428571C114.2857142857143 64.1428571428571 121.4285714285714 49.8571428571429 164.2857142857143 49.8571428571429C285.7142857142857 35.5714285714286 400 107 457.1428571428572 214.1428571428571zM1000 -50.1428571428571C921.4285714285714 -14.4285714285714 842.8571428571429 21.2857142857143 764.2857142857142 64.1428571428571C714.2857142857143 85.5714285714286 557.1428571428571 164.1428571428572 557.1428571428571 164.1428571428572S542.8571428571429 149.8571428571429 528.5714285714286 135.5714285714286C450 42.7142857142857 371.4285714285714 -7.2857142857143 257.1428571428571 -28.7142857142857C207.1428571428571 -35.8571428571428 171.4285714285714 -28.7142857142857 114.2857142857143 -7.2857142857141C50 7 0 71.2857142857142 0 149.8571428571428C0 235.5714285714285 35.7142857142857 307 100 342.7142857142857C171.4285714285714 385.5714285714285 264.2857142857143 371.2857142857143 342.8571428571429 349.8571428571429C392.8571428571429 335.5714285714286 521.4285714285714 299.8571428571428 521.4285714285714 299.8571428571428S542.8571428571429 364.1428571428571 550 378.4285714285714C557.1428571428571 392.7142857142857 578.5714285714286 449.8571428571428 578.5714285714286 449.8571428571428H171.4285714285714V499.8571428571428H385.7142857142857V578.4285714285714H128.5714285714286V628.4285714285714H385.7142857142857C385.7142857142857 628.4285714285714 385.7142857142857 671.2857142857142 385.7142857142857 764.1428571428571L500 764.1428571428571V621.2857142857142H757.1428571428571V571.2857142857142H500V499.8571428571428C500 499.8571428571428 714.2857142857143 499.8571428571428 714.2857142857143 499.8571428571428C692.8571428571428 414.1428571428571 657.1428571428571 342.7142857142857 628.5714285714287 264.1428571428571C742.8571428571429 206.9999999999999 878.5714285714287 164.142857142857 1000 128.4285714285713V-50.1428571428571z" />
    <glyph glyph-name="tmall"
      unicode="&#xEA07;"
      horiz-adv-x="1000" d="M0 549.8571428571429C0 614.1428571428571 28.5714285714286 649.8571428571429 85.7142857142857 649.8571428571429C171.4285714285714 649.8571428571429 214.2857142857143 485.5714285714286 292.8571428571429 485.5714285714286C207.1428571428571 485.5714285714286 628.5714285714287 485.5714285714286 707.1428571428571 485.5714285714286S835.7142857142857 649.8571428571429 914.2857142857142 649.8571428571429C971.4285714285714 649.8571428571429 992.8571428571428 614.1428571428571 999.9999999999998 549.8571428571429V149.8571428571429C999.9999999999998 107.0000000000001 964.2857142857142 64.1428571428572 914.2857142857142 64.1428571428572H85.7142857142857C35.7142857142857 64.1428571428571 0 99.8571428571429 0 149.8571428571428V549.8571428571429z" />
    <glyph glyph-name="arrow-down-line"
      unicode="&#xEA08;"
      horiz-adv-x="714.2857142857143" d="M357.1428571428572 178.4285714285715C338.8571428571429 178.4285714285715 320.5714285714286 185.4285714285715 306.6428571428572 199.3571428571428L92.3571428571429 413.6428571428571C64.4285714285715 441.5714285714285 64.4285714285715 486.7857142857142 92.3571428571429 514.6428571428571S165.5 542.5714285714284 193.3571428571429 514.6428571428571L357.1428571428572 350.8571428571428L520.9285714285714 514.6428571428571C548.8571428571429 542.5714285714284 594.0714285714286 542.5714285714284 621.9285714285714 514.6428571428571S649.8571428571429 441.4999999999999 621.9285714285714 413.6428571428571L407.6428571428572 199.3571428571428C393.7142857142858 185.4285714285713 375.4285714285715 178.4285714285715 357.1428571428572 178.4285714285715z" />
    <glyph glyph-name="arrow-down"
      unicode="&#xEA09;"
      horiz-adv-x="1000" d="M0 607L500 107L1000 607z" />
    <glyph glyph-name="arrow-left-line"
      unicode="&#xEA0A;"
      horiz-adv-x="500" d="M71.4285714285714 357C71.4285714285714 375.2857142857143 78.4285714285714 393.5714285714286 92.3571428571429 407.5L306.6428571428572 621.7857142857142C334.5714285714286 649.7142857142857 379.7857142857144 649.7142857142857 407.6428571428572 621.7857142857142S435.5714285714286 548.6428571428571 407.6428571428572 520.7857142857142L243.8571428571429 357L407.6428571428572 193.2142857142858C435.5714285714286 165.2857142857143 435.5714285714286 120.0714285714286 407.6428571428572 92.2142857142858S334.5 64.2857142857143 306.6428571428572 92.2142857142858L92.3571428571429 306.5000000000001C78.4285714285714 320.4285714285716 71.4285714285715 338.7142857142858 71.4285714285715 357.0000000000001z" />
    <glyph glyph-name="more"
      unicode="&#xEA0B;"
      horiz-adv-x="1000" d="M250 357C250 322.5 222 294.5 187.5 294.5S125 322.5 125 357C125 391.5 153 419.5 187.5 419.5S250 391.5 250 357zM875 357C875 322.5 847.0000000000001 294.5 812.5 294.5S750 322.5 750 357C750 391.5 778 419.5 812.5 419.5S875 391.5 875 357zM562.5 357C562.5 322.5 534.5 294.5 500 294.5S437.5 322.5 437.5 357C437.5 391.5 465.5000000000001 419.5 500 419.5S562.5 391.5 562.5 357z" />
    <glyph glyph-name="arrow-right-line"
      unicode="&#xEA0C;"
      horiz-adv-x="500" d="M428.5714285714286 357C428.5714285714286 338.7142857142857 421.5714285714286 320.4285714285714 407.6428571428572 306.5L193.3571428571429 92.2142857142857C165.4285714285714 64.2857142857142 120.2142857142857 64.2857142857142 92.3571428571429 92.2142857142857S64.4285714285714 165.3571428571429 92.3571428571429 193.2142857142857L256.1428571428572 357L92.3571428571429 520.7857142857142C64.4285714285715 548.7142857142857 64.4285714285715 593.9285714285713 92.3571428571429 621.7857142857142S165.5 649.7142857142857 193.3571428571429 621.7857142857142L407.6428571428572 407.4999999999999C421.5714285714286 393.5714285714285 428.5714285714286 375.2857142857142 428.5714285714286 357z" />
    <glyph glyph-name="id-info"
      unicode="&#xEA0D;"
      horiz-adv-x="1000" d="M599.125 -80.5L830.8125 151.1875L875 107L625 -143H187.5C118.4375 -143 62.5 -87.0625 62.5 -18V732C62.5 801.0625 118.4375 857 187.5 857H750C819.0625 857 875 801.0625 875 732V294.5H812.5V732C812.5 766.5 784.5 794.5 750 794.5H187.5C153 794.5 125 766.5 125 732V-18C125 -52.5 153 -80.5 187.5 -80.5H599.125zM593.75 -143C611 -143 625 -129 625 -111.75V138.25C625 155.5 611 169.5 593.75 169.5S562.5 155.5 562.5 138.25V-111.75C562.5 -129 576.5 -143 593.75 -143zM593.75 107H875V169.5H593.75C576.5 169.5 562.5 155.5 562.5 138.25V138.25C562.5 121 576.5 107 593.75 107zM312.5 669.5H375V294.5H312.5V669.5zM500 607V357C569.0625 357 625 412.9375 625 482S569.0625 607 500 607zM437.5 669.5H500C603.5625 669.5 687.5 585.5625 687.5 482S603.5625 294.5 500 294.5H437.5V669.5z" />
    <glyph glyph-name="arrow-up-line"
      unicode="&#xEA0E;"
      horiz-adv-x="714.2857142857143" d="M357.1428571428572 535.5714285714286C375.4285714285715 535.5714285714286 393.7142857142858 528.5714285714286 407.6428571428572 514.6428571428571L621.9285714285714 300.3571428571428C649.8571428571429 272.4285714285714 649.8571428571429 227.2142857142857 621.9285714285714 199.3571428571428S548.7857142857143 171.4285714285713 520.9285714285716 199.3571428571428L357.1428571428572 363.1428571428571L193.3571428571429 199.3571428571428C165.4285714285715 171.4285714285713 120.2142857142858 171.4285714285713 92.3571428571429 199.3571428571428S64.4285714285715 272.5 92.3571428571429 300.3571428571428L306.6428571428572 514.6428571428571C320.5714285714287 528.5714285714284 338.8571428571429 535.5714285714284 357.1428571428572 535.5714285714284z" />
    <glyph glyph-name="setting"
      unicode="&#xEA0F;"
      horiz-adv-x="1000" d="M343.7857142857143 232C292 232 250 273.9999999999999 250 325.7857142857142S292 419.5714285714285 343.7857142857143 419.5714285714285C395.5714285714286 419.5714285714285 437.5714285714286 377.5714285714285 437.5714285714286 325.7857142857142S395.5714285714286 232 343.7857142857143 232zM343.7857142857143 294.5C361.0714285714286 294.5 375.0714285714286 308.5 375.0714285714286 325.7857142857142S361.0714285714286 357.0714285714285 343.7857142857143 357.0714285714285C326.5 357.0714285714285 312.5 343.0714285714286 312.5 325.7857142857142S326.5 294.5 343.7857142857143 294.5zM656.2857142857143 482C604.5000000000001 482 562.5000000000001 524 562.5000000000001 575.7857142857142S604.5000000000001 669.5714285714286 656.2857142857143 669.5714285714286C708.0714285714286 669.5714285714286 750.0714285714287 627.5714285714286 750.0714285714287 575.7857142857142S708.0714285714288 482 656.2857142857143 482zM656.2857142857143 544.5C673.5714285714286 544.5 687.5714285714287 558.5 687.5714285714287 575.7857142857142S673.5714285714287 607.0714285714286 656.2857142857143 607.0714285714286C639.0000000000001 607.0714285714286 625 593.0714285714286 625 575.7857142857142S639 544.5 656.2857142857143 544.5zM343.7857142857143 669.5C361.0714285714286 669.5 375.0714285714286 655.5 375.0714285714286 638.2142857142857V513.2142857142857C375.0714285714286 495.9285714285714 361.0714285714286 481.9285714285714 343.7857142857143 481.9285714285714S312.5 495.9285714285714 312.5 513.2142857142857V638.2142857142857C312.5 655.5 326.5 669.5 343.7857142857143 669.5zM343.7857142857143 169.5C361.0714285714286 169.5 375.0714285714286 155.5 375.0714285714286 138.2142857142857V75.7142857142857C375.0714285714286 58.4285714285715 361.0714285714286 44.4285714285713 343.7857142857143 44.4285714285713S312.5 58.4285714285713 312.5 75.7142857142857V138.2142857142857C312.5 155.4999999999999 326.5 169.5 343.7857142857143 169.5zM656.2857142857143 419.5C673.5714285714286 419.5 687.5714285714287 405.5 687.5714285714287 388.2142857142857V75.7142857142858C687.5714285714287 58.4285714285715 673.5714285714287 44.4285714285714 656.2857142857143 44.4285714285714S625 58.4285714285715 625 75.7142857142858V388.2142857142858C625 405.5000000000001 639 419.5000000000001 656.2857142857143 419.5000000000001zM875 -80.5C909.5000000000002 -80.5 937.5 -52.5000000000001 937.5 -18V732C937.5 766.5 909.5000000000002 794.5 875 794.5H125C90.5 794.5 62.5 766.5 62.5 732V-18C62.5 -52.5000000000001 90.5 -80.5 125 -80.5H875zM875 -143H125C56 -143 0 -87 0 -18V732C0 801 56 857 125 857H875C944 857 1000 801 1000 732V-18C1000 -87 944 -143 875 -143z" />
    <glyph glyph-name="attachment"
      unicode="&#xEA10;"
      horiz-adv-x="1000" d="M562.5 669.5C562.5 738.5 506.5 794.5 437.5 794.5S312.5 738.5 312.5 669.5V107C312.5 3.4285714285714 396.4285714285715 -80.5 500 -80.5S687.5 3.4285714285714 687.5 107V544.5H750V107C750 -31.0714285714286 638.0714285714286 -143 500 -143S250 -31.0714285714286 250 107V669.5C250 773.0714285714286 333.9285714285715 857 437.5 857S625 773.0714285714286 625 669.5V169.5C625 100.5 569 44.5 500 44.5S375 100.5 375 169.5V544.5H437.5V169.5C437.5 134.9999999999999 465.5000000000001 107 500 107S562.5 134.9999999999999 562.5 169.5V669.5z" />
    <glyph glyph-name="check-circle"
      unicode="&#xEA11;"
      horiz-adv-x="1000" d="M500 -143C223.8571428571429 -143 0 80.8571428571429 0 357S223.8571428571429 857 500 857C776.1428571428571 857 1000 633.1428571428571 1000 357S776.1428571428571 -143 500 -143zM417.7142857142857 306.8571428571429L310.1428571428571 414.4285714285715C277.5714285714286 447.0000000000001 224.8571428571428 447.0000000000001 192.2857142857143 414.4285714285715S159.7142857142857 329.1428571428571 192.2857142857143 296.5714285714286L358.9285714285715 129.9285714285715C391.5000000000001 97.3571428571429 444.2142857142857 97.3571428571429 476.7857142857143 129.9285714285715C478.2142857142857 131.3571428571428 479.5714285714286 132.7857142857142 480.8571428571429 134.2857142857142L810.1428571428573 463.5714285714286C842.7142857142859 496.1428571428572 842.7142857142859 548.8571428571429 810.1428571428573 581.4285714285713S724.8571428571431 614 692.2857142857144 581.4285714285713L417.7142857142859 306.8571428571429z" />
    <glyph glyph-name="back-arrow"
      unicode="&#xEA12;"
      horiz-adv-x="1000" d="M31.25 357C14 357 0 371 0 388.25S14 419.5 31.25 419.5H968.75C986 419.5 1000 405.5 1000 388.25S986 357 968.75 357H31.25zM365.875 97.875C378.0625 85.6874999999999 378.0625 65.8749999999999 365.875 53.6874999999999S333.8750000000001 41.4999999999999 321.6875 53.6874999999999L9.1875 366.1874999999999C-3 378.375 -3 398.1875 9.1875 410.3749999999999S41.1875 422.5624999999999 53.375 410.3749999999999L365.875 97.875zM9.125 410.375C-3.0625 398.1875 -3.0625 378.3750000000001 9.125 366.1875S41.125 354 53.3125 366.1875L365.8125 678.6875C378 690.875 378 710.6875 365.8125 722.875S333.8125 735.0625 321.625 722.875L9.125 410.375z" />
    <glyph glyph-name="character-area"
      unicode="&#xEA13;"
      horiz-adv-x="1000" d="M375 44.5H125C55.9375 44.5 0 100.4375 0 169.5V732C0 801.0625 55.9375 857 125 857H812.5C881.5625 857 937.5 801.0625 937.5 732V544.5H875V732C875 766.5 847 794.5 812.5 794.5H125C90.5 794.5 62.5 766.5 62.5 732V169.5C62.5 135 90.5 107 125 107H375V44.5zM312.5 482C347 482 375 510 375 544.5S347 607 312.5 607C278 607 250 579 250 544.5S278 482 312.5 482zM312.5 419.5C243.4375 419.5 187.5 475.4375 187.5 544.5S243.4375 669.5 312.5 669.5C381.5625 669.5 437.5 613.5625 437.5 544.5S381.5625 419.5 312.5 419.5zM187.5 242.4375V294.5C187.5 365.6875 249.875 419.5 312.5 419.5C377.125 419.5 437.5 368.3125 437.5 294.5H500C500 419.5 392.875 482 312.5 482S125 415.3125 125 294.5V232L187.5 242.4375zM187.5 242.4375V294.5C187.5 365.6875 249.875 419.5 312.5 419.5C377.125 419.5 437.5 368.3125 437.5 294.5H500C500 419.5 392.875 482 312.5 482S125 415.3125 125 294.5V232L187.5 242.4375zM125 294.5H187.5V232H125V294.5zM593.75 544.5H718.75C736 544.5 750 530.5 750 513.25S736 482 718.75 482H593.75C576.5 482 562.5 496 562.5 513.25S576.5 544.5 593.75 544.5zM593.75 669.5H718.75C736 669.5 750 655.5 750 638.25S736 607 718.75 607H593.75C576.5 607 562.5 621 562.5 638.25S576.5 669.5 593.75 669.5zM562.5 169.5V-80.5H937.5V169.5H562.5zM562.5 232H937.5C972 232 1000 204 1000 169.5V-80.5C1000 -115 972 -143 937.5 -143H562.5C528 -143 500 -115 500 -80.5V169.5C500 204 528 232 562.5 232zM750 107C784.5 107 812.5 79 812.5 44.5S784.5 -18 750 -18C715.5 -18 687.5 10 687.5 44.5S715.5 107 750 107zM812.5 232V307C812.5 333.0625 785.875 357 750 357S687.5 333.0625 687.5 307V232H625V307C625 369.125 680.9375 419.5 750 419.5S875 369.125 875 307V232H812.5zM812.5 232V307C812.5 333.0625 785.875 357 750 357S687.5 333.0625 687.5 307V232H625V307C625 369.125 680.9375 419.5 750 419.5S875 369.125 875 307V232H812.5z" />
    <glyph glyph-name="collasped-o"
      unicode="&#xEA14;"
      horiz-adv-x="1000" d="M214.2857142857143 785.5714285714286C135.3571428571429 785.5714285714286 71.4285714285714 721.6428571428571 71.4285714285714 642.7142857142858V71.2857142857142C71.4285714285714 -7.6428571428572 135.3571428571429 -71.5714285714285 214.2857142857143 -71.5714285714285H785.7142857142858C864.6428571428572 -71.5714285714285 928.5714285714286 -7.6428571428572 928.5714285714286 71.2857142857142V642.7142857142858C928.5714285714286 721.6428571428571 864.6428571428572 785.5714285714286 785.7142857142858 785.5714285714286H214.2857142857143zM214.2857142857143 857H785.7142857142858C904.0714285714286 857 1000 761.0714285714286 1000 642.7142857142858V71.2857142857142C1000 -47.0714285714286 904.0714285714286 -143 785.7142857142858 -143H214.2857142857143C95.9285714285714 -143 0 -47.0714285714286 0 71.2857142857142V642.7142857142858C0 761.0714285714286 95.9285714285714 857 214.2857142857143 857zM250 321.2857142857142C230.2857142857143 321.2857142857142 214.2857142857143 337.2857142857144 214.2857142857143 357S230.2857142857143 392.7142857142857 250 392.7142857142857H750C769.7142857142857 392.7142857142857 785.7142857142858 376.7142857142857 785.7142857142858 357S769.7142857142857 321.2857142857142 750 321.2857142857142H250z" />
    <glyph glyph-name="collasped"
      unicode="&#xEA15;"
      horiz-adv-x="1000" d="M214.2857142857143 857H785.7142857142858C904.0714285714286 857 1000 761.0714285714286 1000 642.7142857142858V71.2857142857142C1000 -47.0714285714286 904.0714285714286 -143 785.7142857142858 -143H214.2857142857143C95.9285714285714 -143 0 -47.0714285714286 0 71.2857142857142V642.7142857142858C0 761.0714285714286 95.9285714285714 857 214.2857142857143 857zM750 419.5H250C215.5 419.5 187.5 391.5 187.5 357S215.5 294.5 250 294.5H750C784.5000000000001 294.5 812.5 322.5 812.5 357S784.5000000000001 419.5 750 419.5z" />
    <glyph glyph-name="copy-o"
      unicode="&#xEA16;"
      horiz-adv-x="1000" d="M928.5714285714286 571.2857142857142H714.2857142857143V785.5714285714286H428.5714285714286C400.3571428571429 785.5714285714286 357.1428571428572 742.7857142857142 357.1428571428572 714.1428571428571H285.7142857142857C285.7142857142857 783.1428571428571 361.7857142857143 857 428.5714285714286 857H785.7142857142858L1000 642.7142857142858V142.7142857142857C1000 73.7142857142858 923.9285714285714 -0.1428571428571 857.1428571428571 -0.1428571428571H642.8571428571429L702.3571428571429 71.2857142857142H857.1428571428571C885.3571428571429 71.2857142857142 928.5714285714286 114.0714285714286 928.5714285714286 142.7142857142857V571.2857142857142zM899 642.7142857142858L785.7142857142858 756V642.7142857142858H899zM470.4285714285714 642.7142857142858L663.7857142857142 449.3571428571429L714.2857142857143 499.8571428571428L500 714.1428571428571H142.8571428571429C76.0714285714286 714.1428571428571 0 640.3571428571429 0 571.2857142857142V-0.1428571428571C0 -69.1428571428571 76.0714285714286 -143 142.8571428571429 -143H571.4285714285714C638.2142857142858 -143 714.2857142857143 -69.2142857142858 714.2857142857143 -0.1428571428571V276.6428571428571H642.8571428571429V-0.1428571428571C642.8571428571429 -28.7857142857143 599.6428571428571 -71.5714285714285 571.4285714285714 -71.5714285714285H142.8571428571429C114.6428571428572 -71.5714285714285 71.4285714285714 -28.7857142857143 71.4285714285714 -0.1428571428571V571.2857142857142C71.4285714285714 599.9285714285713 114.6428571428572 642.7142857142858 142.8571428571429 642.7142857142858H470.4285714285714zM470.4285714285714 642.7142857142858L663.7857142857142 449.3571428571429L714.2857142857143 499.8571428571428L500 714.1428571428571H142.8571428571429C76.0714285714286 714.1428571428571 0 640.3571428571429 0 571.2857142857142V-0.1428571428571C0 -69.1428571428571 76.0714285714286 -143 142.8571428571429 -143H571.4285714285714C638.2142857142858 -143 714.2857142857143 -69.2142857142858 714.2857142857143 -0.1428571428571V276.6428571428571H642.8571428571429V-0.1428571428571C642.8571428571429 -28.7857142857143 599.6428571428571 -71.5714285714285 571.4285714285714 -71.5714285714285H142.8571428571429C114.6428571428572 -71.5714285714285 71.4285714285714 -28.7857142857143 71.4285714285714 -0.1428571428571V571.2857142857142C71.4285714285714 599.9285714285713 114.6428571428572 642.7142857142858 142.8571428571429 642.7142857142858H470.4285714285714zM500 499.8571428571428H714.2857142857143V428.4285714285715H428.5714285714286V714.1428571428571H500V499.8571428571428z" />
    <glyph glyph-name="expand-o"
      unicode="&#xEA17;"
      horiz-adv-x="1000" d="M214.2857142857143 785.5714285714286C135.3571428571429 785.5714285714286 71.4285714285714 721.6428571428571 71.4285714285714 642.7142857142858V71.2857142857142C71.4285714285714 -7.6428571428572 135.3571428571429 -71.5714285714285 214.2857142857143 -71.5714285714285H785.7142857142858C864.6428571428572 -71.5714285714285 928.5714285714286 -7.6428571428572 928.5714285714286 71.2857142857142V642.7142857142858C928.5714285714286 721.6428571428571 864.6428571428572 785.5714285714286 785.7142857142858 785.5714285714286H214.2857142857143zM214.2857142857143 857H785.7142857142858C904.0714285714286 857 1000 761.0714285714286 1000 642.7142857142858V71.2857142857142C1000 -47.0714285714286 904.0714285714286 -143 785.7142857142858 -143H214.2857142857143C95.9285714285714 -143 0 -47.0714285714286 0 71.2857142857142V642.7142857142858C0 761.0714285714286 95.9285714285714 857 214.2857142857143 857zM464.2857142857143 392.7142857142857V607C464.2857142857143 626.7142857142857 480.2857142857143 642.7142857142858 500 642.7142857142858S535.7142857142858 626.7142857142857 535.7142857142858 607V392.7142857142857H750C769.7142857142857 392.7142857142857 785.7142857142858 376.7142857142857 785.7142857142858 357S769.7142857142857 321.2857142857142 750 321.2857142857142H535.7142857142858V107C535.7142857142858 87.2857142857143 519.7142857142857 71.2857142857142 500 71.2857142857142S464.2857142857143 87.2857142857143 464.2857142857143 107V321.2857142857142H250C230.2857142857143 321.2857142857142 214.2857142857143 337.2857142857144 214.2857142857143 357S230.2857142857143 392.7142857142857 250 392.7142857142857H464.2857142857143z" />
    <glyph glyph-name="help-o"
      unicode="&#xEA18;"
      horiz-adv-x="1000" d="M500 -59.6428571428572C730.1428571428571 -59.6428571428572 916.6428571428572 126.9285714285715 916.6428571428572 357S730.0714285714286 773.6428571428571 500 773.6428571428571C269.8571428571429 773.6428571428571 83.3571428571429 587.0714285714286 83.3571428571429 357S269.9285714285715 -59.6428571428572 500 -59.6428571428572zM500 -143C223.8571428571429 -143 0 80.8571428571429 0 357S223.8571428571429 857 500 857C776.1428571428571 857 1000 633.1428571428571 1000 357S776.1428571428571 -143 500 -143zM500 23.6428571428571C546 23.6428571428571 583.3571428571429 60.9285714285715 583.3571428571429 107S546.0714285714286 190.3571428571428 500 190.3571428571428C454 190.3571428571428 416.6428571428572 153.0714285714286 416.6428571428572 107S453.9285714285714 23.6428571428571 500 23.6428571428571zM541.6428571428572 273.6428571428571V328.0714285714286C622.2142857142858 361.6428571428572 666.6428571428572 413.0000000000001 666.6428571428572 482C666.6428571428572 588.3571428571429 606.3571428571429 648.6428571428571 500 648.6428571428571C395.1428571428572 648.6428571428571 333.3571428571429 585.0714285714286 333.3571428571429 482C333.3571428571429 459 352 440.3571428571429 375 440.3571428571429S416.6428571428572 459 416.6428571428572 482C416.6428571428572 539.5714285714286 441.6428571428572 565.3571428571429 500 565.3571428571429C560.2857142857143 565.3571428571429 583.3571428571429 542.3571428571429 583.3571428571429 482C583.3571428571429 447.6428571428572 555 419.2142857142857 486.8571428571428 396.5C469.8571428571428 390.8571428571429 458.3571428571428 374.9285714285715 458.3571428571428 357V273.6428571428571C458.3571428571428 250.6428571428572 477 232 500 232S541.6428571428572 250.6428571428571 541.6428571428572 273.6428571428571z" />
    <glyph glyph-name="info"
      unicode="&#xEA19;"
      horiz-adv-x="1000" d="M500 -143C223.8571428571429 -143 0 80.8571428571429 0 357S223.8571428571429 857 500 857C776.1428571428571 857 1000 633.1428571428571 1000 357S776.1428571428571 -143 500 -143zM500 523.6428571428571C546 523.6428571428571 583.3571428571429 560.9285714285714 583.3571428571429 607S546.0714285714286 690.3571428571429 500 690.3571428571429C454 690.3571428571429 416.6428571428572 653.0714285714286 416.6428571428572 607S453.9285714285714 523.6428571428571 500 523.6428571428571zM500 440.3571428571429C454 440.3571428571429 416.6428571428572 403.0714285714286 416.6428571428572 357V107C416.6428571428572 61 453.9285714285714 23.6428571428571 500 23.6428571428571S583.3571428571429 60.9285714285715 583.3571428571429 107V357C583.3571428571429 403 546.0714285714286 440.3571428571429 500 440.3571428571429z" />
    <glyph glyph-name="page-end"
      unicode="&#xEA1A;"
      horiz-adv-x="642.8571428571429" d="M321.4285714285715 357L71.4285714285714 642.7142857142858L113.0714285714286 690.3571428571429L404.7142857142858 357L113.0714285714286 23.6428571428571L71.4285714285715 71.2857142857142L321.4285714285715 357zM488.0714285714286 357L238.0714285714286 642.7142857142858L279.7142857142857 690.3571428571429L571.3571428571429 357L279.7142857142857 23.6428571428571L238.0714285714286 71.2857142857142L488.0714285714286 357z" />
    <glyph glyph-name="page-next"
      unicode="&#xEA1B;"
      horiz-adv-x="500" d="M333.3571428571429 357L83.3571428571429 71.2857142857142L125 23.6428571428571L416.6428571428572 357L125 690.3571428571429L83.3571428571429 642.7142857142858z" />
    <glyph glyph-name="page-previous"
      unicode="&#xEA1C;"
      horiz-adv-x="500" d="M166.6428571428572 357L416.6428571428572 642.7142857142858L375 690.3571428571429L83.3571428571429 357L375 23.6428571428571L416.6428571428572 71.2857142857142z" />
    <glyph glyph-name="page-top"
      unicode="&#xEA1D;"
      horiz-adv-x="642.8571428571429" d="M321.4285714285715 357L571.4285714285714 71.2857142857142L529.7857142857143 23.6428571428571L238.1428571428571 357L529.7857142857143 690.3571428571429L571.4285714285714 642.7142857142858L321.4285714285715 357zM154.7857142857143 357L404.7857142857143 71.2857142857142L363.1428571428571 23.6428571428571L71.5 357L363.1428571428571 690.3571428571429L404.7857142857143 642.7142857142858L154.7857142857143 357z" />
    <glyph glyph-name="character-authorize"
      unicode="&#xEA1E;"
      horiz-adv-x="1000" d="M375 -18H125C55.9375 -18 0 37.9375 0 107V669.5C0 738.5625 55.9375 794.5 125 794.5H812.5C881.5625 794.5 937.5 738.5625 937.5 669.5V482H875V669.5C875 704 847 732 812.5 732H125C90.5 732 62.5 704 62.5 669.5V107C62.5 72.5 90.5 44.5 125 44.5H375V-18zM312.5 419.5C347 419.5 375 447.5 375 482S347 544.5 312.5 544.5C278 544.5 250 516.5 250 482S278 419.5 312.5 419.5zM312.5 357C243.4375 357 187.5 412.9375 187.5 482S243.4375 607 312.5 607C381.5625 607 437.5 551.0625 437.5 482S381.5625 357 312.5 357zM187.5 179.9375V232C187.5 303.1875 249.875 357 312.5 357C377.125 357 437.5 305.8125000000001 437.5 232H500C500 357 392.875 419.5 312.5 419.5S125 352.8125 125 232V169.5L187.5 179.9375zM187.5 179.9375V232C187.5 303.1875 249.875 357 312.5 357C377.125 357 437.5 305.8125000000001 437.5 232H500C500 357 392.875 419.5 312.5 419.5S125 352.8125 125 232V169.5L187.5 179.9375zM125 232H187.5V169.5H125V232zM593.75 482H718.75C736 482 750 468 750 450.75S736 419.5 718.75 419.5H593.75C576.5 419.5 562.5 433.5 562.5 450.75S576.5 482 593.75 482zM593.75 607H718.75C736 607 750 593 750 575.75S736 544.5 718.75 544.5H593.75C576.5 544.5 562.5 558.5 562.5 575.75S576.5 607 593.75 607zM1000 294.5C1000 329 972 357 937.5 357H562.5C528 357 500 329 500 294.5V-80.5C500 -115 528 -143 562.5 -143H937.5C972 -143 1000 -115 1000 -80.5V44.5H937.5V-80.5H562.5V294.5H1000zM948.4375 224.5C961.5625000000002 235.75 981.2500000000002 234.1875 992.5 221.125S1002.1875 188.3125 989.125 177.0625L770.375 -10.4375C756.125 -22.625 734.4375000000001 -19.625 724.0625 -4.0625L661.5625 89.6875C652 104.0625000000001 655.8750000000001 123.4375000000001 670.25 133S704 138.6875 713.5625 124.3125000000001L756.5 59.9375000000001L948.4999999999998 224.5000000000001z" />
    <glyph glyph-name="reload"
      unicode="&#xEA1F;"
      horiz-adv-x="1000" d="M883.6428571428572 123.4285714285715C811.5714285714286 -1.7142857142858 678.3571428571429 -80.5 531.2857142857143 -80.5C306.9285714285715 -80.5 125.0000000000001 101.3571428571428 125.0000000000001 325.7857142857142S306.857142857143 732.0714285714286 531.2857142857143 732.0714285714286C667.7142857142858 732.0714285714286 792.6428571428572 664.3571428571428 867.7857142857143 553.5L919.5000000000002 588.5714285714286C835.2142857142859 712.8571428571428 692.7857142857144 794.5714285714286 531.2857142857144 794.5714285714286C272.4285714285716 794.5714285714286 62.5000000000001 584.7142857142857 62.5000000000001 325.7857142857142S272.357142857143 -143 531.2857142857144 -143C705.1428571428573 -143 856.857142857143 -48.3571428571429 937.7857142857144 92.2142857142857L883.6428571428573 123.4285714285713zM906.2857142857144 857C923.5714285714286 857 937.5714285714286 843 937.5714285714286 825.7142857142857V575.7142857142858C937.5714285714286 558.4285714285714 923.5714285714286 544.4285714285713 906.2857142857144 544.4285714285713S875 558.4285714285713 875 575.7142857142858V825.7142857142857C875 843 889 857 906.2857142857144 857zM656.2857142857143 607H906.2857142857144C923.5714285714286 607 937.5714285714286 593 937.5714285714286 575.7142857142858S923.5714285714286 544.4285714285713 906.2857142857144 544.4285714285713H656.2857142857143C639.0000000000001 544.4285714285713 625 558.4285714285713 625 575.7142857142858S639 607 656.2857142857143 607z" />
    <glyph glyph-name="remind"
      unicode="&#xEA20;"
      horiz-adv-x="1000" d="M572.9285714285716 778.3571428571429L989.5000000000002 27.7142857142858C1011.857142857143 -12.5714285714286 997.2857142857144 -63.2857142857143 957.0714285714286 -85.6428571428571C944.7142857142858 -92.5 930.7857142857144 -96.1428571428571 916.5714285714286 -96.1428571428571H83.357142857143C37.2857142857144 -96.1428571428571 1e-13 -58.7857142857143 1e-13 -12.7857142857143C1e-13 1.3571428571429 3.5714285714287 15.2857142857143 10.5000000000001 27.7142857142858L427.0714285714287 778.3571428571429C449.4285714285715 818.6428571428572 500.2142857142858 833.1428571428572 540.4285714285714 810.7857142857143C554.0714285714287 803.2142857142858 565.2857142857143 792 572.857142857143 778.3571428571429zM500 -12.7857142857143C546.0714285714286 -12.7857142857143 583.3571428571429 24.5714285714286 583.3571428571429 70.5714285714286S546 153.9285714285715 500 153.9285714285715C453.9285714285714 153.9285714285715 416.6428571428572 116.5714285714286 416.6428571428572 70.5714285714286S454 -12.7857142857143 500 -12.7857142857143zM500 654.3571428571429C453.9285714285714 654.3571428571429 416.6428571428572 617 416.6428571428572 571V320.8571428571428C416.6428571428572 274.7857142857144 454 237.5 500 237.5S583.3571428571429 274.8571428571428 583.3571428571429 320.8571428571428V571C583.3571428571429 617.0714285714286 546 654.3571428571428 500 654.3571428571428z" />
    <glyph glyph-name="sequence-down"
      unicode="&#xEA22;"
      horiz-adv-x="1000" d="M569.4285714285714 -113.7142857142858C551.6428571428572 -131.7857142857143 527.0714285714287 -143 500 -143S448.3571428571429 -131.7857142857143 430.5714285714286 -113.7142857142858L135.9285714285715 186.2857142857142C97.5714285714286 225.3571428571429 97.5714285714286 288.6428571428571 135.9285714285715 327.7142857142857S236.5000000000001 366.7857142857142 274.857142857143 327.7142857142857L401.857142857143 198.4285714285713V757C401.857142857143 812.2142857142857 445.857142857143 857 500.0714285714287 857S598.2857142857143 812.2142857142857 598.2857142857143 757V198.4285714285713L725.2857142857144 327.7142857142857C763.6428571428573 366.7857142857142 825.857142857143 366.7857142857142 864.2142857142859 327.7142857142857S902.5714285714288 225.3571428571429 864.2142857142859 186.2857142857142L569.5714285714288 -113.7142857142858z" />
    <glyph glyph-name="sequence-up"
      unicode="&#xEA23;"
      horiz-adv-x="1000" d="M430.5714285714286 827.7142857142857C448.3571428571429 845.7857142857143 472.9285714285714 857 500 857S551.6428571428571 845.7857142857143 569.4285714285714 827.7142857142857L864.0714285714286 527.7142857142857C902.4285714285714 488.6428571428571 902.4285714285714 425.3571428571429 864.0714285714286 386.2857142857143S763.5 347.2142857142857 725.1428571428571 386.2857142857143L598.1428571428571 515.5714285714287V-43C598.1428571428571 -98.2142857142857 554.1428571428571 -143 499.9285714285713 -143S401.7142857142857 -98.2142857142857 401.7142857142857 -43V515.5714285714287L274.7142857142856 386.2857142857143C236.3571428571428 347.2142857142857 174.1428571428571 347.2142857142857 135.7857142857142 386.2857142857143S97.4285714285713 488.6428571428571 135.7857142857142 527.7142857142858L430.4285714285714 827.7142857142858z" />
    <glyph glyph-name="sequence"
      unicode="&#xEA24;"
      horiz-adv-x="1000" d="M499.8571428571429 -71.5714285714285C489.8571428571429 -71.5714285714285 479.9285714285714 -67.7857142857142 472.2857142857143 -60.1428571428571L238.5 173.6428571428571C223.2857142857143 188.8571428571428 223.2857142857143 213.5 238.5 228.7142857142858S278.3571428571429 243.9285714285715 293.5714285714286 228.7142857142858L499.7857142857143 22.5L706 228.7142857142858C721.2142857142857 243.9285714285715 745.8571428571429 243.9285714285715 761.0714285714287 228.7142857142858S776.2857142857143 188.8571428571429 761.0714285714287 173.6428571428571L527.2857142857144 -60.1428571428571C519.6428571428572 -67.7857142857142 509.7142857142858 -71.5714285714285 499.7142857142858 -71.5714285714285zM499.8571428571429 691.5L293.6428571428572 485.2857142857142C278.4285714285715 470.0714285714285 253.7857142857144 470.0714285714285 238.5714285714287 485.2857142857142S223.3571428571429 525.1428571428571 238.5714285714287 540.3571428571428L472.3571428571429 774.1428571428571C487.5714285714287 789.3571428571428 512.2142857142858 789.3571428571428 527.4285714285716 774.1428571428571L761.2142857142859 540.3571428571428C776.4285714285716 525.1428571428571 776.4285714285716 500.4999999999999 761.2142857142859 485.2857142857142S721.357142857143 470.0714285714285 706.1428571428572 485.2857142857142L499.9285714285715 691.5z" />
    <glyph glyph-name="warning"
      unicode="&#xEA25;"
      horiz-adv-x="1000" d="M500 -143C223.8571428571429 -143 0 80.8571428571429 0 357S223.8571428571429 857 500 857C776.1428571428571 857 1000 633.1428571428571 1000 357S776.1428571428571 -143 500 -143zM500 474.8571428571429L392.2857142857143 582.5714285714287C359.7142857142857 615.1428571428571 307 615.1428571428571 274.4285714285715 582.5714285714287S241.8571428571429 497.2857142857143 274.4285714285715 464.7142857142858L382.1428571428571 357.0000000000001L274.4285714285714 249.2857142857144C241.8571428571429 216.7142857142858 241.8571428571429 164.0000000000001 274.4285714285714 131.4285714285715S359.7142857142857 98.8571428571429 392.2857142857142 131.4285714285715L499.9999999999999 239.1428571428572L607.7142857142857 131.4285714285716C640.2857142857142 98.857142857143 692.9999999999999 98.857142857143 725.5714285714286 131.4285714285716S758.1428571428571 216.7142857142858 725.5714285714286 249.2857142857145L617.8571428571428 357.0000000000002L725.5714285714284 464.7142857142859C758.142857142857 497.2857142857145 758.142857142857 550.0000000000002 725.5714285714284 582.5714285714287S640.2857142857142 615.1428571428573 607.7142857142856 582.5714285714287L499.9999999999998 474.857142857143z" />
    <glyph glyph-name="creative"
      unicode="&#xEA26;"
      horiz-adv-x="1000" d="M375 388.25C375 387.75 375 387.3125 375 386.875C374.875 387.25 375 387.6875 375 388.25zM404.875 276.625C416.875 237.75 424.8125 208 430.3125 178.3125C435 152.9375 437.5 129.3125 437.5 107C437.5 89.75 423.5 75.75 406.25 75.75S375 89.75 375 107C375 125.1875 372.875 145.0625 368.875 166.875C363.875 193.6875 356.5625 221.375 345.1875 258.125C342.5 266.8124999999999 331 303.1875 333.5625 295.1875C329.1875 309.125 326.1875 319 323.5 328.3124999999999C316.1875 353.9375 312.5625 372.4374999999999 312.5625 388.1875C312.5625 458.8749999999999 384.2500000000001 461.1249999999999 509.1875 423L531.3125 416.25V287.8124999999999C531.3125 270.5625 517.3125 256.5624999999999 500.0624999999999 256.5624999999999S468.8124999999999 270.5625 468.8124999999999 287.8124999999999V369.6875C430.875 380.1875 402.25 385.0625 383.875 384.5C375.1875 384.25 374.6875 385.1875 374.9375 386.75C375 372.875 373.5 378.375 404.9375 276.5625zM333.6875 294.5C333.625 294.6875 333.5625000000001 294.9375 333.5 295.125C333.5625000000001 295 333.625 294.75 333.6875 294.5zM625.3125 391.0625C625.1875 391.6875 625 392.375 625 393.1875C625 392.5 625 391.8125 625 391.25L625.3125 391.125zM595.0625 278.875C584.4375 243.625 577.125 216.25 571.6875 189.1875C565.6875 159.4374999999999 562.5 132.3125 562.5 107C562.5 89.75 576.5 75.75 593.75 75.75S625 89.75 625 107C625 127.6875 627.75 150.8125 632.9375 176.8125C637.9375 201.6250000000001 644.75 227.2500000000001 654.8750000000001 260.8125C657.5625 269.6875 669.0625000000001 307.0000000000001 666.5000000000001 298.8125C670.8750000000001 313.0625 673.8750000000001 323.1875000000001 676.5000000000001 332.6875C683.7500000000001 358.8125000000001 687.4375000000001 377.4375000000001 687.4375000000001 393.1875000000001C687.4375000000001 431.1875 658.4375000000001 450.7500000000001 617.1250000000001 450.7500000000001C586.9375000000001 450.7500000000001 545.0000000000001 441.3125000000001 489.9375000000001 422.8125000000001L468.6875000000002 415.6250000000001V287.875C468.6875000000002 270.625 482.6875000000002 256.625 499.9375000000002 256.625S531.1875000000001 270.625 531.1875000000001 287.875V370.4375C569.6250000000001 382.375 598.5625000000001 388.25 617.1250000000001 388.25C625.0625000000002 388.25 625.5625000000001 389.3125 625.2500000000002 391.0625C625.1250000000001 377.875 626.1250000000001 381.875 595.0000000000002 278.875zM666.375 298.0625C666.4375 298.25 666.5000000000001 298.5 666.5625000000001 298.6875C666.5000000000001 298.5625 666.4375 298.3125 666.375 298.0625zM500 732C327.4375 732 187.5 592.0625 187.5 419.5S327.4375 107 500 107C672.5625 107 812.5 246.9375 812.5 419.5S672.5625 732 500 732zM500 794.5C707.125 794.5 875 626.625 875 419.5S707.125 44.5 500 44.5C292.875 44.5 125 212.375 125 419.5S292.875 794.5 500 794.5zM625 107C625 124.25 639 138.25 656.25 138.25S687.5 124.25 687.5 107V44.5C687.5 -59.0625 603.5625 -143 500 -143S312.5 -59.0625 312.5 44.5V107C312.5 124.25 326.5 138.25 343.75 138.25S375 124.25 375 107V44.5C375 -24.5625 430.9375 -80.5 500 -80.5S625 -24.5625 625 44.5V107zM8.125 802.1875C-4.1875 814.3125 -4.3125 834.0625 7.8125 846.375S39.6875 858.8125 52 846.6875L114.875 784.625C127.1875 772.5 127.3125 752.75 115.1875 740.4375S83.3125 728 71 740.125L8.125 802.1875zM945.75 853.9375C957.9375 866.1875 977.75 866.1875 989.9375 854S1002.1875 822 990 809.8125L927.75 747.4375C915.5625 735.1875 895.7499999999999 735.1875 883.5624999999999 747.375S871.3124999999999 779.375 883.5 791.5625L945.75 853.9375zM120.375 -2.1875C108.1875 -14.375 88.375 -14.375 76.1875 -2.1875S64 29.8125 76.1875 42L140.125 105.9375C152.3125 118.125 172.125 118.125 184.3125 105.9375S196.5 73.9375 184.3125 61.75L120.375 -2.1875zM946.25 36.375C958.4375 24.1874999999999 958.4375 4.3749999999999 946.25 -7.8125000000001S914.25 -20.0000000000001 902.0625 -7.8125000000001L839.5625 54.6874999999999C827.375 66.8749999999999 827.375 86.6874999999999 839.5625 98.875S871.5625 111.0625 883.75 98.875L946.25 36.375z" />
    <glyph glyph-name="data-authorize"
      unicode="&#xEA28;"
      horiz-adv-x="1000" d="M156.25 732C104.5 732 62.5 690 62.5 638.25S104.5 544.5 156.25 544.5H718.75C770.5 544.5 812.5 586.5 812.5 638.25S770.5 732 718.75 732H156.25zM156.25 794.5H718.75C805.0625 794.5 875 724.5625 875 638.25S805.0625 482 718.75 482H156.25C69.9375 482 0 551.9375 0 638.25S69.9375 794.5 156.25 794.5zM218.75 638.25C218.75 603.75 190.75 575.75 156.25 575.75S93.75 603.75 93.75 638.25C93.75 672.75 121.75 700.75 156.25 700.75S218.75 672.75 218.75 638.25zM218.75 388.25C218.75 353.75 190.75 325.75 156.25 325.75S93.75 353.75 93.75 388.25C93.75 422.75 121.75 450.75 156.25 450.75S218.75 422.75 218.75 388.25zM437.5 482V544.5H156.25C69.9375 544.5 0 474.5625 0 388.25S69.9375 232 156.25 232H437.5V294.5H156.25C104.5 294.5 62.5 336.5 62.5 388.25S104.5 482 156.25 482H437.5zM437.5 232V294.5H156.25C69.9375 294.5 0 224.5625 0 138.25S69.9375 -18 156.25 -18H437.5V44.5H156.25C104.5 44.5 62.5 86.5 62.5 138.25S104.5 232 156.25 232H437.5zM281.25 669.5H343.75C361 669.5 375 655.5 375 638.25S361 607 343.75 607H281.25C264 607 250 621 250 638.25S264 669.5 281.25 669.5zM281.25 419.5H343.75C361 419.5 375 405.5 375 388.25S361 357 343.75 357H281.25C264 357 250 371 250 388.25S264 419.5 281.25 419.5zM156.25 169.5H218.75C236 169.5 250 155.5 250 138.25S236 107 218.75 107H156.25C139 107 125 121 125 138.25S139 169.5 156.25 169.5zM562.5 169.5V-80.5H937.5V169.5H562.5zM562.5 232H937.5C972 232 1000 204 1000 169.5V-80.5C1000 -115 972 -143 937.5 -143H562.5C528 -143 500 -115 500 -80.5V169.5C500 204 528 232 562.5 232zM750 107C784.5 107 812.5 79 812.5 44.5S784.5 -18 750 -18C715.5 -18 687.5 10 687.5 44.5S715.5 107 750 107zM812.5 232V307C812.5 333.0625 785.875 357 750 357S687.5 333.0625 687.5 307V232H625V307C625 369.125 680.9375 419.5 750 419.5S875 369.125 875 307V232H812.5zM812.5 232V307C812.5 333.0625 785.875 357 750 357S687.5 333.0625 687.5 307V232H625V307C625 369.125 680.9375 419.5 750 419.5S875 369.125 875 307V232H812.5z" />
    <glyph glyph-name="detail"
      unicode="&#xEA29;"
      horiz-adv-x="1000" d="M625 -80.5L580.7857142857143 -98.7857142857143L599.0714285714287 -80.5H624.9285714285714zM599.1428571428571 -80.5L830.8571428571429 151.2142857142857L875.0714285714286 107L625.0714285714286 -143H187.5714285714285C118.5714285714286 -143 62.5714285714285 -87 62.5714285714285 -18V732C62.5714285714285 801 118.5714285714286 857 187.5714285714285 857H750.0714285714286C819.0714285714286 857 875.0714285714286 801 875.0714285714286 732V294.5H812.5714285714286V732C812.5714285714286 766.5 784.5714285714286 794.5 750.0714285714286 794.5H187.5714285714285C153.0714285714285 794.5 125.0714285714286 766.5 125.0714285714286 732V-18C125.0714285714286 -52.5000000000001 153.0714285714285 -80.5 187.5714285714285 -80.5H599.2142857142857zM625 -80.5L580.7857142857143 -98.7857142857143L599.0714285714287 -80.5H624.9285714285714zM599.1428571428571 -80.5L830.8571428571429 151.2142857142857L875.0714285714286 107L625.0714285714286 -143H187.5714285714285C118.5714285714286 -143 62.5714285714285 -87 62.5714285714285 -18V732C62.5714285714285 801 118.5714285714286 857 187.5714285714285 857H750.0714285714286C819.0714285714286 857 875.0714285714286 801 875.0714285714286 732V294.5H812.5714285714286V732C812.5714285714286 766.5 784.5714285714286 794.5 750.0714285714286 794.5H187.5714285714285C153.0714285714285 794.5 125.0714285714286 766.5 125.0714285714286 732V-18C125.0714285714286 -52.5000000000001 153.0714285714285 -80.5 187.5714285714285 -80.5H599.2142857142857zM593.7857142857143 -143C611.0714285714286 -143 625.0714285714287 -129 625.0714285714287 -111.7142857142857V138.2857142857143C625.0714285714287 155.5714285714286 611.0714285714287 169.5714285714287 593.7857142857143 169.5714285714287S562.5000000000001 155.5714285714287 562.5000000000001 138.2857142857143V-111.7142857142857C562.5000000000001 -128.9999999999999 576.5000000000001 -143 593.7857142857143 -143zM281.2857142857143 169.5H468.7857142857143C486.0714285714286 169.5 500.0714285714286 183.5 500.0714285714286 200.7857142857143S486.0714285714286 232.0714285714287 468.7857142857143 232.0714285714287H281.2857142857144C264.0000000000001 232.0714285714287 250.0000000000001 218.0714285714287 250.0000000000001 200.7857142857143S264.0000000000001 169.5 281.2857142857144 169.5zM281.2857142857143 44.5H468.7857142857143C486.0714285714286 44.5 500.0714285714286 58.5 500.0714285714286 75.7857142857143S486.0714285714286 107.0714285714287 468.7857142857143 107.0714285714287H281.2857142857144C264.0000000000001 107.0714285714287 250.0000000000001 93.0714285714287 250.0000000000001 75.7857142857143S264.0000000000001 44.5 281.2857142857144 44.5zM312.5 419.5V669.5C312.5 686.7857142857142 298.5 700.7857142857143 281.2142857142857 700.7857142857143S249.9285714285714 686.7857142857142 249.9285714285714 669.5V357H656.2142857142857C673.4999999999999 357 687.5 371 687.5 388.2857142857143S673.5 419.5714285714285 656.2142857142857 419.5714285714285H312.4285714285714zM562.5 526.2142857142857L459.5714285714286 629.1428571428571C447.3571428571429 641.3571428571428 427.5714285714286 641.3571428571428 415.3571428571429 629.1428571428571L290.3571428571429 504.1428571428571C278.1428571428572 491.9285714285714 278.1428571428572 472.1428571428571 290.3571428571429 459.9285714285714S322.357142857143 447.7142857142857 334.5714285714286 459.9285714285714L437.5 562.8571428571429L540.4285714285714 459.9285714285714C552.6428571428571 447.7142857142857 572.4285714285714 447.7142857142857 584.6428571428572 459.9285714285714L709.6428571428572 584.9285714285713C721.8571428571429 597.1428571428571 721.8571428571429 616.9285714285714 709.6428571428572 629.1428571428571S677.6428571428572 641.3571428571428 665.4285714285714 629.1428571428571L562.5000000000001 526.2142857142857zM593.7857142857143 107H875.0714285714287V169.5H593.7857142857143C576.5000000000001 169.5 562.5000000000001 155.5 562.5000000000001 138.2142857142857V138.2142857142857C562.5000000000001 120.9285714285715 576.5000000000001 106.9285714285713 593.7857142857143 106.9285714285713z" />
    <glyph glyph-name="explore"
      unicode="&#xEA2B;"
      horiz-adv-x="1000" d="M500 -80.5C741.625 -80.5 937.5 115.375 937.5 357S741.625 794.5 500 794.5C258.375 794.5 62.5 598.625 62.5 357S258.375 -80.5 500 -80.5zM500 -143C223.875 -143 0 80.875 0 357S223.875 857 500 857C776.125 857 1000 633.125 1000 357S776.125 -143 500 -143zM577.375 279.625L693.5 550.5L422.625 434.375L577.4375 279.5625zM375 482L740.6875 638.75C756.5624999999999 645.5625 774.9375 638.1875 781.75 622.3125C785.125 614.4375 785.125 605.5625 781.75 597.6875L625 232L259.3125 75.25C243.4375 68.4375 225.0625 75.8125000000001 218.25 91.6875C214.875 99.5625 214.875 108.4375000000001 218.25 116.3125L375 482.0000000000001z" />
    <glyph glyph-name="export"
      unicode="&#xEA2C;"
      horiz-adv-x="1000" d="M375 -18V-80.5H250C109.3571428571429 -63.2142857142857 0 56 0 200.7857142857143C0 323.3571428571429 78.4285714285714 427.6428571428572 187.9285714285714 466.1428571428572C187.6428571428572 471.4285714285714 187.5 476.7142857142857 187.5 482.0000000000001C187.5 654.5714285714287 327.4285714285714 794.5000000000001 500 794.5000000000001C651.7142857142858 794.5000000000001 778.1428571428572 686.4285714285716 806.5714285714286 543.0714285714287C915.5 530.5 1000 438 1000 325.7857142857144H937.5C937.5 405.3571428571429 877.7142857142858 472.0000000000001 799.3571428571429 481.0000000000001L754.0714285714287 486.2142857142858L745.2142857142858 530.9285714285716C722.2142857142858 647.0000000000001 619.8571428571429 732.0000000000001 500 732.0000000000001C361.9285714285715 732.0000000000001 250 620.0714285714287 250 482.0000000000001C250 477.7142857142858 250.0714285714286 473.5000000000001 250.2857142857143 469.2857142857144L252.6428571428572 422.7142857142859L208.6428571428572 407.2142857142859C121.7857142857143 376.6428571428573 62.5 294.357142857143 62.5 200.7857142857145C62.5 90.2857142857145 145 -2.7857142857141 254.0714285714286 -17.9999999999999H375zM406.2857142857143 107C389 107 375 121 375 138.2857142857143S389 169.5714285714287 406.2857142857143 169.5714285714287H843.7857142857142C861.0714285714286 169.5714285714287 875.0714285714286 155.5714285714287 875.0714285714286 138.2857142857143S861.0714285714286 107 843.7857142857142 107H406.2857142857142zM884.1428571428572 160.3571428571428C896.3571428571429 172.5714285714286 916.1428571428572 172.5714285714286 928.3571428571428 160.3571428571428S940.5714285714286 128.3571428571428 928.3571428571428 116.1428571428571L740.8571428571429 -71.3571428571429C728.6428571428572 -83.5714285714285 708.8571428571429 -83.5714285714285 696.6428571428572 -71.3571428571429S684.4285714285714 -39.3571428571429 696.6428571428572 -27.1428571428572L884.1428571428572 160.3571428571428zM884.1428571428572 116.1428571428571L696.6428571428572 303.6428571428571C684.4285714285714 315.8571428571429 684.4285714285714 335.6428571428571 696.6428571428572 347.8571428571429S728.6428571428572 360.0714285714286 740.8571428571429 347.8571428571429L928.3571428571428 160.3571428571428C940.5714285714286 148.1428571428571 940.5714285714286 128.3571428571428 928.3571428571428 116.1428571428571S896.3571428571429 103.9285714285715 884.1428571428572 116.1428571428571z" />
    <glyph glyph-name="file-download"
      unicode="&#xEA2D;"
      horiz-adv-x="1000" d="M599.1428571428571 794.5L830.8571428571429 562.7857142857142L875.0714285714286 607L625.0714285714286 857H187.5714285714285C118.5714285714286 857 62.5714285714285 801 62.5714285714285 732V-18C62.5714285714285 -87 118.5714285714286 -143 187.5714285714285 -143H750.0714285714286C819.0714285714286 -143 875.0714285714286 -87 875.0714285714286 -18V419.5H812.5714285714286V-18C812.5714285714286 -52.5000000000001 784.5714285714286 -80.5 750.0714285714286 -80.5H187.5714285714285C153.0714285714285 -80.5 125.0714285714286 -52.5000000000001 125.0714285714286 -18V732C125.0714285714286 766.5 153.0714285714285 794.5 187.5714285714285 794.5H599.2142857142857zM593.7857142857143 857C611.0714285714286 857 625.0714285714287 843 625.0714285714287 825.7142857142857V575.7142857142858C625.0714285714287 558.4285714285714 611.0714285714287 544.4285714285713 593.7857142857143 544.4285714285713S562.5000000000001 558.4285714285713 562.5000000000001 575.7142857142858V825.7142857142857C562.5000000000001 843 576.5000000000001 857 593.7857142857143 857zM437.5 450.7142857142857C437.5 468 451.5 482 468.7857142857143 482S500.0714285714286 468 500.0714285714286 450.7142857142857V138.2142857142858C500.0714285714286 120.9285714285715 486.0714285714286 106.9285714285715 468.7857142857143 106.9285714285715S437.5 120.9285714285715 437.5 138.2142857142858V450.7142857142858zM490.8571428571429 160.3571428571428C503.0714285714286 148.1428571428571 503.0714285714286 128.3571428571428 490.8571428571429 116.1428571428571S458.8571428571428 103.9285714285715 446.6428571428572 116.1428571428571L290.3571428571429 272.4285714285715C278.1428571428571 284.6428571428571 278.1428571428571 304.4285714285715 290.3571428571429 316.6428571428571S322.3571428571429 328.8571428571429 334.5714285714286 316.6428571428571L490.8571428571429 160.3571428571428zM446.6428571428572 160.3571428571428L602.9285714285714 316.6428571428571C615.1428571428572 328.8571428571429 634.9285714285716 328.8571428571429 647.1428571428572 316.6428571428571S659.3571428571429 284.6428571428571 647.1428571428572 272.4285714285715L490.8571428571429 116.1428571428571C478.6428571428571 103.9285714285715 458.8571428571428 103.9285714285715 446.6428571428572 116.1428571428571S434.4285714285715 148.1428571428571 446.6428571428572 160.3571428571428zM593.7857142857143 607H875.0714285714287V544.5H593.7857142857143C576.5000000000001 544.5 562.5000000000001 558.5 562.5000000000001 575.7857142857142V575.7857142857142C562.5000000000001 593.0714285714286 576.5000000000001 607.0714285714286 593.7857142857143 607.0714285714286z" />
    <glyph glyph-name="file-upload"
      unicode="&#xEA2E;"
      horiz-adv-x="1000" d="M599.125 794.5L830.8125 562.8125L875 607L625 857H187.5C118.4375 857 62.5 801.0625 62.5 732V-18C62.5 -87.0625 118.4375 -143 187.5 -143H750C819.0625 -143 875 -87.0625 875 -18V419.5H812.5V-18C812.5 -52.5 784.5 -80.5 750 -80.5H187.5C153 -80.5 125 -52.5 125 -18V732C125 766.5 153 794.5 187.5 794.5H599.125zM593.75 857C611 857 625 843 625 825.75V575.75C625 558.5 611 544.5 593.75 544.5S562.5 558.5 562.5 575.75V825.75C562.5 843 576.5 857 593.75 857zM437.5 450.75C437.5 468 451.5 482 468.75 482S500 468 500 450.75V138.25C500 121 486 107 468.75 107S437.5 121 437.5 138.25V450.75zM490.875 428.625L334.625 272.375C322.4375 260.1875 302.6250000000001 260.1875 290.4375 272.375S278.25 304.3750000000001 290.4375 316.5625000000001L446.6875 472.8125000000001C458.8750000000001 485.0000000000001 478.6875000000001 485.0000000000001 490.875 472.8125000000001S503.0624999999999 440.8125000000001 490.875 428.6250000000001zM446.625 428.625C434.4375 440.8125 434.4375 460.6249999999999 446.625 472.8125S478.6249999999999 485 490.8125 472.8125L647.0625 316.5625C659.25 304.375 659.25 284.5625 647.0625 272.3749999999999S615.0625 260.1874999999999 602.8749999999999 272.3749999999999L446.625 428.625zM593.75 607H875V544.5H593.75C576.5 544.5 562.5 558.5 562.5 575.75V575.75C562.5 593 576.5 607 593.75 607z" />
    <glyph glyph-name="gear"
      unicode="&#xEA2F;"
      horiz-adv-x="1000" d="M747.9375 547L725.8125000000001 575.8125L778.6250000000001 700.9375L657.6875000000001 770.75L575.5000000000001 662.125L539.6250000000001 666.6875C513.0625000000001 670.0625 486.1875000000001 670 459.6250000000001 666.5L423.6250000000001 661.75L341.1875000000002 770.6875L220.2500000000002 700.875L273.3750000000002 574.9375L251.5000000000002 546.125C243.5000000000002 535.5625 236.0625000000002 524.4375 229.3750000000002 512.8125S216.7500000000002 489.25 211.6250000000002 477L197.6250000000002 443.625L62.0000000000002 426.6875V287.0625L197.5625000000002 270.125L211.5000000000002 236.5624999999999C221.7500000000002 211.8124999999999 235.1250000000002 188.4999999999999 251.3750000000002 167.1875L273.2500000000002 138.3749999999999L220.3125000000002 12.875L341.2500000000002 -56.9375000000001L423.2500000000002 51.375L459.2500000000002 46.6249999999999C486.0000000000002 43.125 513.1250000000001 43.125 539.9375000000002 46.5625L575.9375000000002 51.2499999999999L657.8125000000002 -56.9375000000001L778.7500000000002 12.875L726.1250000000002 137.625L748.1250000000002 166.4375C756.3125000000002 177.125 763.8125000000002 188.4375 770.6875000000003 200.3125S783.5625000000002 224.3125 788.7500000000002 236.75L802.6875000000003 270.25L937.0625000000005 287.0625V426.6875L802.4375000000003 443.5L788.5000000000003 477C778.1250000000003 501.9375 764.5625000000002 525.4375 748.1250000000002 546.875zM846 501.1875L944.6875 488.875C975.9375 484.9375000000001 999.4375 458.375 999.4375 426.875V287.25C999.4375 255.75 975.9375 229.125 944.6875 225.25L846.3125 212.9375C840.125 198.125 832.9375 183.5625 824.6875 169.25S807.4375 141.4375 797.6875 128.6875000000001L836.2499999999999 37.3750000000001C848.4999999999999 8.3125000000001 837.1875 -25.3125 809.9375 -41.0625L689 -110.875C661.6875 -126.6250000000001 626.9374999999999 -119.6250000000001 607.9374999999999 -94.5L547.9375 -15.25C516 -19.375 483.4374999999999 -19.4375 451.125 -15.1875L391.0625 -94.5C372.0625 -119.625 337.25 -126.6875 310 -110.875L189.0625 -41.0625C161.75 -25.3125 150.5 8.3125 162.75 37.375L201.625 129.5624999999999C182.0625 155.3125 166 183.3124999999999 153.8125 212.8125L54.3125 225.25C23.0625 229.1875 -0.4375 255.7499999999999 -0.4375 287.25V426.875C-0.4375 458.375 23.0625 485 54.3125 488.875L154.0625 501.3125C160.1875 515.875 167.25 530.1875 175.3125 544.1875S192.25 571.5 201.8125 584.0625L162.75 676.6875C150.5 705.75 161.8125 739.375 189.0625 755.125L310 824.9375C337.3125 840.6875 372.0625 833.6875 391.0625 808.5625L451.5624999999999 728.625C483.1874999999999 732.75 515.5 732.9375 547.5625 728.8125L607.9374999999999 808.5625C626.9374999999999 833.6875 661.75 840.75 689 824.9375L809.9375 755.125C837.2499999999999 739.375 848.5 705.75 836.2499999999999 676.6875L797.5625 585C817.4374999999999 559.125 833.625 530.875 846 501.1874999999999zM500 232C569.0625 232 625 287.9375 625 357S569.0625 482 500 482C430.9375 482 375 426.0625 375 357S430.9375 232 500 232zM500 169.5C396.4375 169.5 312.5 253.4375 312.5 357S396.4375 544.5 500 544.5C603.5625 544.5 687.5 460.5625 687.5 357S603.5625 169.5 500 169.5z" />
    <glyph glyph-name="id-mapping"
      unicode="&#xEA30;"
      horiz-adv-x="1000" d="M125 -80.5H468.75C486 -80.5 500 -94.5 500 -111.75S486 -143 468.75 -143H125C90.5 -143 62.5 -115 62.5 -80.5V200.75C62.5 313.1875 128.5 410.25 223.875 455.25C164.3125 494.3125 125 561.6875 125 638.25C125 759.0625 222.9375 857 343.75 857C361 857 375 843 375 825.75S361 794.5 343.75 794.5C257.4375 794.5 187.5 724.5625 187.5 638.25S257.4375 482 343.75 482C361 482 375 468 375 450.75S361 419.5 343.75 419.5C222.9375 419.5 125 321.5625 125 200.75V-80.5zM375 -80.5H437.5V-143H375V-80.5zM468.75 482H656.25C673.5 482 687.5 468 687.5 450.75S673.5 419.5 656.25 419.5H468.75C451.5 419.5 437.5 433.5 437.5 450.75S451.5 482 468.75 482zM593.75 357H843.75C861 357 875 343 875 325.75S861 294.5 843.75 294.5H593.75C576.5 294.5 562.5 308.5 562.5 325.75S576.5 357 593.75 357zM656.25 232H781.25C798.5 232 812.5 218 812.5 200.75S798.5 169.5 781.25 169.5H656.25C639 169.5 625 183.5 625 200.75S639 232 656.25 232zM656.25 107H718.75C736 107 750 93 750 75.75S736 44.5 718.75 44.5H656.25C639 44.5 625 58.5 625 75.75S639 107 656.25 107zM656.25 -18H906.25C923.5 -18 937.5 -32 937.5 -49.25S923.5 -80.5 906.25 -80.5H656.25C639 -80.5 625 -66.5 625 -49.25S639 -18 656.25 -18zM593.75 607H718.75C736 607 750 593 750 575.75S736 544.5 718.75 544.5H593.75C576.5 544.5 562.5 558.5 562.5 575.75S576.5 607 593.75 607zM593.75 732H843.75C861 732 875 718 875 700.75S861 669.5 843.75 669.5H593.75C576.5 669.5 562.5 683.5 562.5 700.75S576.5 732 593.75 732zM468.75 857H718.75C736 857 750 843 750 825.75S736 794.5 718.75 794.5H468.75C451.5 794.5 437.5 808.5 437.5 825.75S451.5 857 468.75 857z" />
    <glyph glyph-name="import"
      unicode="&#xEA31;"
      horiz-adv-x="1000" d="M625 -18V-80.5H750C890.6428571428571 -63.2142857142857 1000 56 1000 200.7857142857143C1000 323.3571428571429 921.5714285714286 427.6428571428572 812.0714285714286 466.1428571428572C812.3571428571428 471.4285714285714 812.5 476.7142857142857 812.5 482.0000000000001C812.5 654.5714285714287 672.5714285714287 794.5000000000001 500 794.5000000000001C348.2857142857143 794.5000000000001 221.8571428571429 686.4285714285716 193.4285714285715 543.0714285714287C84.5 530.5 0 438 0 325.7857142857144H62.5C62.5 405.3571428571429 122.2857142857143 472.0000000000001 200.6428571428572 481.0000000000001L245.9285714285715 486.2142857142858L254.7857142857143 530.9285714285716C277.7857142857144 647.0000000000001 380.1428571428572 732.0000000000001 500 732.0000000000001C638.0714285714286 732.0000000000001 750 620.0714285714287 750 482.0000000000001C750 477.7142857142858 749.9285714285714 473.5000000000001 749.7142857142858 469.2857142857144L747.357142857143 422.7142857142859L791.3571428571429 407.2142857142859C878.2142857142858 376.6428571428573 937.5 294.357142857143 937.5 200.7857142857145C937.5 90.2857142857145 855.0000000000001 -2.7857142857141 745.9285714285714 -17.9999999999999H625zM31.2857142857143 107C14 107 0 121 0 138.2857142857143S14 169.5714285714287 31.2857142857143 169.5714285714287H468.7857142857143C486.0714285714286 169.5714285714287 500.0714285714286 155.5714285714287 500.0714285714286 138.2857142857143S486.0714285714286 107 468.7857142857143 107H31.2857142857143zM509.1428571428572 160.3571428571428C521.3571428571429 172.5714285714286 541.1428571428572 172.5714285714286 553.3571428571429 160.3571428571428S565.5714285714286 128.3571428571428 553.3571428571429 116.1428571428571L365.8571428571429 -71.3571428571429C353.6428571428571 -83.5714285714285 333.8571428571429 -83.5714285714285 321.6428571428572 -71.3571428571429S309.4285714285715 -39.3571428571429 321.6428571428572 -27.1428571428572L509.1428571428572 160.3571428571428zM509.1428571428572 116.1428571428571L321.6428571428572 303.6428571428571C309.4285714285715 315.8571428571429 309.4285714285715 335.6428571428571 321.6428571428572 347.8571428571429S353.6428571428572 360.0714285714286 365.8571428571429 347.8571428571429L553.3571428571429 160.3571428571428C565.5714285714286 148.1428571428571 565.5714285714286 128.3571428571428 553.3571428571429 116.1428571428571S521.3571428571429 103.9285714285715 509.1428571428572 116.1428571428571z" />
    <glyph glyph-name="off"
      unicode="&#xEA34;"
      horiz-adv-x="1000" d="M301.5625 763.8125C317.6875 770 335.75 761.875 341.8750000000001 745.75S339.9375000000001 711.5625 323.8125000000001 705.4375C167.7500000000001 645.8125 62.4375 495.6875 62.4375 325.75C62.4375 101.375 244.3125000000001 -80.5 468.6875000000001 -80.5S874.9375 101.375 874.9375 325.75C874.9375 495.4375 769.9375 645.4375 614.125 705.1875C598.0000000000001 711.375 589.9375 729.4375 596.125 745.5625S620.375 769.75 636.5000000000001 763.5625C816.3125 694.625 937.4375000000002 521.5625 937.4375000000002 325.75C937.4375000000002 66.875 727.5625000000001 -143 468.6875000000002 -143S-0.0624999999999 66.875 -0.0624999999999 325.75C-0.0624999999999 521.75 121.3750000000002 695 301.5000000000002 763.8125zM468.75 857C486 857 500 843 500 825.75V450.75C500 433.5 486 419.5 468.75 419.5S437.5 433.5 437.5 450.75V825.75C437.5 843 451.5 857 468.75 857z" />
    <glyph glyph-name="peoples-map"
      unicode="&#xEA35;"
      horiz-adv-x="1000" d="M781.2857142857143 294.5C833.0714285714287 294.5 875.0714285714287 336.5 875.0714285714287 388.2857142857143S833.0714285714288 482.0714285714285 781.2857142857143 482.0714285714285C729.5000000000001 482.0714285714285 687.5 440.0714285714285 687.5 388.2857142857143S729.5 294.5 781.2857142857143 294.5zM781.2857142857143 232C695 232 625 301.9285714285715 625 388.2857142857144S694.9285714285714 544.5714285714287 781.2857142857143 544.5714285714287C867.5714285714287 544.5714285714287 937.5714285714286 474.6428571428572 937.5714285714286 388.2857142857144S867.6428571428573 232 781.2857142857143 232zM781.2857142857143 232C695 232 625 162.0714285714286 625 75.7142857142857V-80.5714285714287H937.5V75.7142857142857C937.5 162 867.5714285714287 232 781.2142857142857 232zM781.2857142857143 294.5C902.0714285714286 294.5 1000.0714285714286 196.5714285714286 1000.0714285714286 75.7142857142857V-80.5714285714287C1000.0714285714286 -115.0714285714287 972.0714285714286 -143.0714285714287 937.5714285714286 -143.0714285714287H625.0714285714287C590.5714285714287 -143.0714285714287 562.5714285714287 -115.0714285714287 562.5714285714287 -80.5714285714287V75.7142857142857C562.5714285714287 196.5 660.5000000000001 294.5 781.357142857143 294.5zM437.5 169.5V232C333.9285714285715 232 250 148.0714285714286 250 44.5V-80.5C250 -115.0000000000001 278 -143 312.5 -143H437.5V-80.5H312.5V44.5C312.5 113.4999999999999 368.5 169.5 437.5 169.5zM812.5 669.5H750V732C750 766.5 722.0000000000001 794.5 687.5 794.5H125C90.5 794.5 62.5 766.5 62.5 732V107C62.5 72.4999999999999 90.5 44.5 125 44.5V-18C56 -18 0 38 0 107V732C0 801 56 857 125 857H687.5C756.5 857 812.5 801 812.5 732V669.5zM437.5 232C472 232 500 260 500 294.5S472 357 437.5 357C403.0000000000001 357 375 329 375 294.5S403.0000000000001 232 437.5 232zM437.5 169.5C368.5 169.5 312.5 225.5 312.5 294.5S368.5 419.5 437.5 419.5C506.5 419.5 562.5 363.5 562.5 294.5S506.5 169.5 437.5 169.5z" />
    <glyph glyph-name="peoples"
      unicode="&#xEA36;"
      horiz-adv-x="1000" d="M500 544.5C569 544.5 625 600.5 625 669.5S569 794.5 500 794.5C431 794.5 375 738.5 375 669.5S431 544.5 500 544.5zM500 482C396.4285714285715 482 312.5 565.9285714285713 312.5 669.5S396.4285714285715 857 500 857C603.5714285714286 857 687.5 773.0714285714286 687.5 669.5S603.5714285714286 482 500 482zM812.5 419.5C847.0000000000001 419.5 875 447.5 875 482S847.0000000000001 544.5 812.5 544.5C778 544.5 750 516.5 750 482S778 419.5 812.5 419.5zM812.5 357C743.5000000000001 357 687.5 413 687.5 482S743.5000000000001 607 812.5 607C881.5 607 937.5 551 937.5 482S881.5 357 812.5 357zM187.5 419.5C222 419.5 250 447.5 250 482S222 544.5 187.5 544.5C153 544.5 125 516.5 125 482S153 419.5 187.5 419.5zM187.5 357C118.5 357 62.5 413 62.5 482S118.5 607 187.5 607C256.5 607 312.5 551 312.5 482S256.5 357 187.5 357zM500 357C396.4285714285715 357 312.5 273.0714285714286 312.5 169.5V-80.5H687.5V169.5C687.5 273.0714285714286 603.5714285714286 357 500 357zM500 419.5C638.0714285714286 419.5 750 307.5714285714286 750 169.5V-80.5C750 -115.0000000000001 722.0000000000001 -143 687.5 -143H312.5C278 -143 250 -115.0000000000001 250 -80.5V169.5C250 307.5714285714286 361.9285714285715 419.5 500 419.5zM812.5 -18C881.5 -18 937.5 38 937.5 107S881.5 232 812.5 232V294.5C916.0714285714286 294.5 1000 210.5714285714286 1000 107S916.0714285714286 -80.5 812.5 -80.5V-18zM812.5 -18C881.5 -18 937.5 38 937.5 107S881.5 232 812.5 232V294.5C916.0714285714286 294.5 1000 210.5714285714286 1000 107S916.0714285714286 -80.5 812.5 -80.5V-18zM187.5 -18V-80.5C83.9285714285714 -80.5 0 3.4285714285714 0 107S83.9285714285714 294.5 187.5 294.5V232C118.5 232 62.5 175.9999999999999 62.5 107S118.5 -18 187.5 -18zM187.5 -18V-80.5C83.9285714285714 -80.5 0 3.4285714285714 0 107S83.9285714285714 294.5 187.5 294.5V232C118.5 232 62.5 175.9999999999999 62.5 107S118.5 -18 187.5 -18z" />
    <glyph glyph-name="sales"
      unicode="&#xEA37;"
      horiz-adv-x="1000" d="M250 482C319.0625 482 375 537.9375 375 607S319.0625 732 250 732C180.9375 732 125 676.0625 125 607S180.9375 482 250 482zM250 419.5C146.4375 419.5 62.5 503.4375 62.5 607S146.4375 794.5 250 794.5C353.5625 794.5 437.5 710.5625 437.5 607S353.5625 419.5 250 419.5zM750 -18C819.0625 -18 875 37.9375 875 107S819.0625 232 750 232C680.9375 232 625 176.0625 625 107S680.9375 -18 750 -18zM750 -80.5C646.4375 -80.5 562.5 3.4375 562.5 107S646.4375 294.5 750 294.5C853.5625 294.5 937.5 210.5625 937.5 107S853.5625 -80.5 750 -80.5zM40.375 -58.375L852.875 754.125C882.3125 783.5625 926.5625000000002 739.375 897.0625000000001 709.9375L84.5625000000001 -102.5625000000001C55.1250000000001 -132.0000000000001 10.8750000000001 -87.8125 40.3750000000001 -58.375zM656.25 794.5H906.25C923.5 794.5 937.5 780.5 937.5 763.25S923.5 732 906.25 732H656.25C639 732 625 746 625 763.25S639 794.5 656.25 794.5zM875 513.25V763.25C875 780.5 889 794.5 906.25 794.5S937.5 780.5 937.5 763.25V513.25C937.5 496 923.5 482 906.25 482S875 496 875 513.25z" />
    <glyph glyph-name="project"
      unicode="&#xEA39;"
      horiz-adv-x="1000" d="M62.5 732H562.5V669.5H62.5zM750 169.5H937.5V-18H750V169.5zM812.5 107V44.5H875V107H812.5zM437.5 169.5H625V-18H437.5V169.5zM500 107V44.5H562.5V107H500zM125 169.5H312.5V-18H125V169.5zM187.5 107V44.5H250V107H187.5zM812.5 482H875V294.5H812.5zM187.5 482H250V294.5H187.5zM62.5 732H125V482H62.5zM500 482H562.5V294.5H500zM62.5 544.5H875V482H62.5z" />
    <glyph glyph-name="public-opinion"
      unicode="&#xEA3A;"
      horiz-adv-x="1000" d="M250 44.5H687.5C722 44.5 750 72.5 750 107V482C750 516.5 722 544.5 687.5 544.5H125C90.5 544.5 62.5 516.5 62.5 482V107C62.5 72.5 90.5 44.5 125 44.5H166.6875L250 -18V44.5zM312.5 -18V-143L145.8125 -18H125C55.9375 -18 0 37.9375 0 107V482C0 551.0625 55.9375 607 125 607H687.5C756.5625 607 812.5 551.0625 812.5 482V107C812.5 37.9375 756.5625 -18 687.5 -18H312.5zM849.125 419.5H875C909.5 419.5 937.5 447.5 937.5 482V732C937.5 766.5 909.5 794.5 875 794.5H437.5C403 794.5 375 766.5 375 732V544.5H312.5V732C312.5 801.0625 368.4375 857 437.5 857H875C944.0625 857 1000 801.0625 1000 732V482C1000 412.9375 944.0625 357 875 357L812.5 294.5V357H786.625L849.125 419.5zM562.5 341.8125C562.5 411.125 555.8125 419.5 525 419.5C509.7500000000001 419.5 487.25 401.75 459.8125 356.1250000000001C435.5625 315.6875 376.875 315.6875 352.625 356.1250000000001C325.2500000000001 401.7500000000001 302.75 419.5000000000001 287.4375 419.5000000000001C256.625 419.5000000000001 249.9375 411.1250000000001 249.9375 341.8125000000001C249.9375 302.2500000000001 299.6250000000001 245.5625000000001 406.1875000000001 179.7500000000001C512.75 245.5625000000001 562.4375 302.2500000000001 562.4375 341.8125000000001zM406.25 388.25C413.375 400.0625 437.5 482 525 482C587.5 482 625 450.75 625 341.8125C625 269.1874999999999 552.0625 190.9375 406.25 107C260.4375 190.9375 187.5 269.25 187.5 341.8125C187.5 450.75 225 482 287.5 482C375 482 399.125 400.0625 406.25 388.25z" />
    <glyph glyph-name="rate"
      unicode="&#xEA3B;"
      horiz-adv-x="1000" d="M161.25 669.8125L125 695.625L88.75 669.8125C88.125 669.375 87.3125 669.25 86.625 669.4375C85.3125 669.8125 84.5625 671.1875 84.9375 672.5L97.75 715.9375L62.75 743.125C61.875 743.8125 61.3125 744.875 61.3125 746C61.25 748.0625 62.875 749.75 64.9375 749.8125L108.75 750.75L122.8125 792.25C123.0625 792.9375 123.5625 793.4375 124.25 793.6875C125.4375 794.125 126.75 793.4375 127.1875 792.25L141.25 750.75L185.0625 749.8125C186.1875 749.8125 187.25 749.25 187.9375 748.375C189.1875 746.75 188.875 744.4375 187.3125 743.1875L152.3125 716L165.125 672.5625C165.3125 671.8125 165.1875 671.0625 164.75 670.4375C163.9375 669.3125 162.375 669.0625 161.3125 669.875zM125 618.9375C154.25 598.125 194.8125 604.9375 215.625 634.125C227.1875000000001 650.375 230.6875000000001 671.0625 225 690.25L224.25 692.75L225.5625 693.75C254.4375 716.1875 259.6875 757.75 237.25 786.6875C225 802.4375 206.3125 811.875 186.3125 812.3125C174.8125 846.1875 138 864.375 104.125 852.8125C85.0625 846.3125 70.0625 831.375 63.625 812.3125C27.0625 811.5625 -1.9375 781.3125 -1.1875 744.75C-0.75 724.8125 8.625 706.0625 24.4375 693.8125L25.75 692.8125L25 690.3125C14.8125 655.875 34.5 619.75 68.9375 609.5625C88.125 603.875 108.8125 607.375 125.0625 618.9375zM161.25 294.8125L125 320.6875L88.75 294.875C88.125 294.4375 87.3125 294.3125 86.625 294.5C85.3125 294.875 84.5625 296.25 84.9375 297.5625L97.75 341L62.75 368.1875C61.875 368.875 61.3125 369.9375 61.3125 371.0625C61.25 373.125 62.875 374.8125 64.9375 374.875L108.75 375.8125L122.8125 417.3125C123.0625 418 123.5625 418.5 124.25 418.75C125.4375 419.1874999999999 126.75 418.5 127.1875 417.3125L141.25 375.8125L185.0625 374.875C186.1875 374.875 187.25 374.3125 187.9375 373.4375C189.1875 371.8125 188.875 369.5 187.3125 368.25L152.3125 341.0625L165.125 297.6249999999999C165.3125 296.8749999999999 165.1875 296.125 164.75 295.4999999999999C163.9375 294.3749999999999 162.375 294.1249999999999 161.3125 294.9374999999999zM125 243.9375C154.25 223.125 194.8125 229.9375 215.625 259.1250000000001C227.1875000000001 275.375 230.6875000000001 296.0625 225 315.25L224.25 317.75L225.5625 318.75C254.4375 341.1875 259.6875 382.75 237.25 411.6875C225 427.4375 206.3125 436.8750000000001 186.3125 437.3125C174.8125 471.1875 138 489.375 104.125 477.875C85.0625 471.375 70.0625 456.4375 63.625 437.3125C27.0625 436.5625000000001 -1.9375 406.3125 -1.1875 369.7500000000001C-0.75 349.8125 8.625 331.0625 24.4375 318.8125000000001L25.75 317.8125000000001L25 315.3125000000001C14.8125 280.8750000000001 34.5 244.7500000000001 68.9375 234.5625000000001C88.125 228.8750000000003 108.8125 232.3750000000001 125.0625 243.9375000000001zM161.25 -80.1875L125 -54.3125L88.75 -80.125C88.125 -80.5625 87.3125 -80.6875 86.625 -80.5C85.3125 -80.125 84.5625 -78.75 84.9375 -77.4375L97.75 -34L62.75 -6.8125C61.875 -6.125 61.3125 -5.0625 61.3125 -3.9375C61.25 -1.875 62.875 -0.1875 64.9375 -0.125L108.75 0.8125L122.8125 42.3125C123.0625 43 123.5625 43.5 124.25 43.75C125.4375 44.1875 126.75 43.5 127.1875 42.3125L141.25 0.8125L185.0625 -0.125C186.1875 -0.125 187.25 -0.6875 187.9375 -1.5625C189.1875 -3.1875 188.875 -5.5 187.3125 -6.75L152.3125 -33.9375L165.125 -77.3750000000001C165.3125 -78.1250000000001 165.1875 -78.875 164.75 -79.5000000000001C163.9375 -80.6250000000001 162.375 -80.8750000000001 161.3125 -80.0625000000001zM125 -131.0625C154.25 -151.875 194.8125 -145.0624999999999 215.625 -115.8749999999999C227.1875000000001 -99.625 230.6875000000001 -78.9375 225 -59.75L224.25 -57.25L225.5625 -56.25C254.4375 -33.8125 259.6875 7.7499999999999 237.25 36.6875C225 52.4375 206.3125 61.875 186.3125 62.3125C174.8125 96.1875 138 114.375 104.125 102.8750000000001C85.0625 96.3750000000001 70.0625 81.4375000000001 63.625 62.3125C27.0625 61.5625 -1.9375 31.3125 -1.1875 -5.25C-0.75 -25.1875 8.625 -43.9375 24.4375 -56.1874999999999L25.75 -57.1874999999999L25 -59.6874999999999C14.8125 -94.1249999999999 34.5 -130.2499999999999 68.9375 -140.4374999999999C88.125 -146.1249999999998 108.8125 -142.6249999999999 125.0625 -131.0624999999999zM536.25 669.8125L500 695.625L463.75 669.8125C463.125 669.375 462.3125 669.25 461.625 669.4375C460.3125 669.8125 459.5625 671.1875 459.9375 672.5L472.75 715.9375L437.75 743.125C436.875 743.8125 436.3125 744.875 436.3125 746C436.25 748.0625 437.875 749.75 439.9375 749.8125L483.7499999999999 750.75L497.8124999999999 792.25C498.0624999999999 792.9375 498.5624999999999 793.4375 499.2499999999999 793.6875C500.4374999999999 794.125 501.7499999999999 793.4375 502.1874999999999 792.25L516.2499999999999 750.75L560.0624999999999 749.8125C561.1875 749.8125 562.2499999999999 749.25 562.9374999999999 748.375C564.1874999999999 746.75 563.8749999999999 744.4375 562.2499999999999 743.1875L527.2499999999999 716L540.0624999999999 672.5625C540.2499999999999 671.8125 540.1249999999999 671.0625 539.6874999999999 670.4375C538.8749999999999 669.3125 537.3124999999999 669.0625 536.2499999999999 669.875zM500 618.9375C529.25 598.125 569.8125 604.9375 590.625 634.125C602.1875 650.375 605.6874999999999 671.0625 600 690.25L599.25 692.75L600.5625 693.75C629.4375 716.1875 634.6875 757.75 612.25 786.6875C600 802.4375 581.3125 811.875 561.3125 812.3125C549.8125 846.1875 513 864.375 479.125 852.8125C460.0625000000001 846.3125 445.0625 831.375 438.5625 812.3125C402 811.5625 373 781.3125 373.75 744.75C374.1875 724.8125 383.5625 706.0625 399.3750000000001 693.8125L400.6875000000001 692.8125L399.9375000000001 690.3125C389.7500000000001 655.875 409.4375000000001 619.75 443.8750000000001 609.5625C463.0625000000001 603.875 483.7500000000001 607.375 500.0000000000001 618.9375zM536.25 294.8125L500 320.6875L463.75 294.875C463.125 294.4375 462.3125 294.3125 461.625 294.5C460.3125 294.875 459.5625 296.25 459.9375 297.5625L472.75 341L437.75 368.1875C436.875 368.875 436.3125 369.9375 436.3125 371.0625C436.25 373.125 437.875 374.8125 439.9375 374.875L483.7499999999999 375.8125L497.8124999999999 417.3125C498.0624999999999 418 498.5624999999999 418.5 499.2499999999999 418.75C500.4374999999999 419.1874999999999 501.7499999999999 418.5 502.1874999999999 417.3125L516.2499999999999 375.8125L560.0624999999999 374.875C561.1875 374.875 562.2499999999999 374.3125 562.9374999999999 373.4375C564.1874999999999 371.8125 563.8749999999999 369.5 562.2499999999999 368.25L527.2499999999999 341.0625L540.0624999999999 297.6249999999999C540.2499999999999 296.8749999999999 540.1249999999999 296.125 539.6874999999999 295.4999999999999C538.8749999999999 294.3749999999999 537.3124999999999 294.1249999999999 536.2499999999999 294.9374999999999zM500 243.9375C529.25 223.125 569.8125 229.9375 590.625 259.1250000000001C602.1875 275.375 605.6874999999999 296.0625 600 315.25L599.25 317.75L600.5625 318.75C629.4375 341.1875 634.6875 382.75 612.25 411.6875C600 427.4375 581.3125 436.8750000000001 561.3125 437.3125C549.8125 471.1875 513 489.375 479.125 477.875C460.0625000000001 471.375 445.0625 456.4375 438.5625 437.3125C402 436.5625000000001 373 406.3125 373.75 369.7500000000001C374.1875 349.8125 383.5625 331.0625 399.3750000000001 318.8125000000001L400.6875000000001 317.8125000000001L399.9375000000001 315.3125000000001C389.7500000000001 280.8750000000001 409.4375000000001 244.7500000000001 443.8750000000001 234.5625000000001C463.0625000000001 228.8750000000003 483.7500000000001 232.3750000000001 500.0000000000001 243.9375000000001zM911.25 669.8125L875 695.625L838.75 669.8125C838.125 669.375 837.3125 669.25 836.625 669.4375C835.3124999999999 669.8125 834.5625 671.1875 834.9375 672.5L847.75 715.9375L812.75 743.125C811.875 743.8125 811.3125 744.875 811.3125 746C811.25 748.0625 812.875 749.75 814.9375 749.8125L858.75 750.75L872.8125 792.25C873.0625 792.9375 873.5625 793.4375 874.25 793.6875C875.4375 794.125 876.7499999999999 793.4375 877.1875 792.25L891.25 750.75L935.0625 749.8125C936.1875000000002 749.8125 937.25 749.25 937.9375 748.375C939.1875 746.75 938.875 744.4375 937.25 743.1875L902.25 716L915.0625 672.5625C915.25 671.8125 915.125 671.0625 914.6875 670.4375C913.875 669.3125 912.3125 669.0625 911.25 669.875zM875 618.9375C904.25 598.125 944.8125 604.9375 965.625 634.125C977.1875 650.375 980.6874999999998 671.0625 975 690.25L974.25 692.75L975.5625 693.75C1004.4375000000002 716.1875 1009.6875000000002 757.75 987.25 786.6875C975 802.4375 956.3125 811.875 936.3125 812.3125C924.8125 846.1875 888 864.375 854.125 852.8125C835.0625 846.3125 820.0625 831.375 813.5625 812.3125C776.9999999999999 811.5625 748 781.3125 748.75 744.75C749.1875 724.8125 758.5625 706.0625 774.375 693.8125L775.6875000000001 692.8125L774.9375 690.3125C764.75 655.875 784.4375 619.75 818.875 609.5625C838.0625 603.875 858.75 607.375 875 618.9375z" />
    <glyph glyph-name="realtime"
      unicode="&#xEA3C;"
      horiz-adv-x="1000" d="M227.6875 169.1875C226.1875 176.1875 218.375 212.625 216.0625 223.1249999999999C185.875 360.5 159.5 419.5624999999999 93.75 419.5624999999999H0V357.0624999999999H93.75C112 357.0624999999999 133 310.1249999999999 155 209.7499999999999C157.25 199.4999999999999 165 163.1249999999999 166.625 155.9374999999999C190.125 48.3124999999999 203.8125 13.3749999999998 250 13.3749999999998C289.9375 13.3749999999998 304.125 51.8749999999998 327.875 159.9999999999998C335.3125 193.7499999999999 343.0625 233.6249999999998 352.6875 286.2499999999998C358.0625 315.5624999999998 376.75 420.6874999999998 378.375 429.7499999999998C419.375 657.6249999999998 456.875 794.6874999999998 468.6875 794.6874999999998C491.5 794.6874999999998 522.3125 656.0624999999998 562.6875 353.0624999999999C616.0625 -47.0625000000002 637.3125 -142.8125000000002 718.6875 -142.8125000000002C784.1250000000001 -142.8125000000002 801.4375 -87.3125000000002 841.125 127.4374999999998L842.125 132.7499999999998C870.6875000000001 287.4374999999998 892.6875 357.1874999999999 906.1875 357.1874999999999H999.9375V419.6874999999999H906.1875C839.125 419.6874999999999 820.875 361.7499999999999 780.6875 144.1249999999999L779.6875 138.8124999999998C751.875 -11.8125000000002 730.4375 -80.2500000000001 718.6874999999999 -80.2500000000001C695.8749999999999 -80.2500000000001 665.0624999999999 58.3749999999999 624.6875 361.3749999999999C571.3125 761.4999999999999 550.0624999999999 857.2499999999999 468.6874999999999 857.2499999999999C401.125 857.2499999999999 373.75 757.1249999999999 316.8125 440.9374999999999C315.125 431.7499999999999 296.4375 326.7499999999999 291.125 297.5624999999999C281.625 245.6249999999999 274 206.3749999999999 266.75 173.5624999999999C259.375 139.9999999999998 252.5625 113.9999999999999 246.3125 95.5624999999999C242 111.2499999999999 234.875 136.1249999999999 227.5625 169.4374999999999zM437.5 544.5C437.5 510 409.5 482 375 482S312.5 510 312.5 544.5C312.5 579 340.5 607 375 607S437.5 579 437.5 544.5zM687.5 107C687.5 72.5 659.5 44.5 625 44.5S562.5 72.5 562.5 107C562.5 141.5 590.5 169.5 625 169.5S687.5 141.5 687.5 107zM250 232C250 197.5 222 169.5 187.5 169.5S125 197.5 125 232C125 266.5 153 294.5 187.5 294.5S250 266.5 250 232zM875 169.5C875 135 847 107 812.5 107S750 135 750 169.5C750 204 778 232 812.5 232S875 204 875 169.5z" />
    <glyph glyph-name="related-map"
      unicode="&#xEA3D;"
      horiz-adv-x="1000" d="M0.8571428571429 386.4285714285714C16.0714285714286 648.3571428571429 232.8571428571429 856.1428571428571 498.4285714285714 857L498.6428571428572 794.5C267.2142857142857 793.7857142857143 76.6428571428571 612.7857142857142 63.2857142857143 382.7857142857143L0.8571428571429 386.4285714285714zM500 -143V-80.5C731.5 -80.5 922.6428571428572 99.9285714285715 936.6428571428572 329.8571428571429L999 326.0714285714286C982.9999999999998 64.3571428571429 765.7142857142857 -142.9285714285713 499.9285714285713 -142.9285714285713zM187.5 354.5714285714286C187.5 355.3571428571429 187.5 356.2142857142857 187.5 357C187.5 514.9285714285714 304.6428571428571 645.5 456.7857142857143 666.5714285714286L465.3571428571428 604.6428571428571C343.5 587.7857142857142 251.2857142857143 483.7142857142857 250 359.9285714285714C250 355.7142857142857 250 355.7142857142857 250 355L187.5 354.5zM500 44.5V107C625 107 730.3571428571429 199.3571428571428 747.5714285714287 321.9285714285715L809.5000000000001 313.2857142857142C788.2142857142859 161.4285714285715 657.7857142857144 44.5714285714286 500.0714285714287 44.5714285714286zM500 294.5C534.5 294.5 562.5 322.5 562.5 357S534.5 419.5 500 419.5C465.5000000000001 419.5 437.5 391.5 437.5 357S465.5000000000001 294.5 500 294.5zM500 232C431 232 375 288 375 357S431 482 500 482C569 482 625 426 625 357S569 232 500 232zM687.5 669.5C687.5 635 659.5000000000001 607 625 607S562.5 635 562.5 669.5C562.5 704 590.5 732 625 732S687.5 704 687.5 669.5zM375 -18C375 -52.5000000000001 347 -80.5 312.5 -80.5S250 -52.5000000000001 250 -18C250 16.5 278 44.5 312.5 44.5S375 16.5 375 -18zM937.5 482C937.5 447.5 909.5000000000002 419.5 875 419.5S812.5 447.5 812.5 482C812.5 516.5 840.5 544.5 875 544.5S937.5 516.5 937.5 482zM187.5 232C187.5 197.4999999999999 159.5 169.5 125 169.5S62.5 197.4999999999999 62.5 232C62.5 266.5 90.5 294.5 125 294.5S187.5 266.5 187.5 232z" />
    <glyph glyph-name="search-peoples"
      unicode="&#xEA3F;"
      horiz-adv-x="1000" d="M437.5 44.5C644.5714285714287 44.5 812.5 212.4285714285713 812.5 419.5S644.5714285714287 794.5 437.5 794.5C230.4285714285715 794.5 62.5 626.5714285714286 62.5 419.5S230.4285714285715 44.5 437.5 44.5zM437.5 -18C195.8571428571429 -18 0 177.8571428571429 0 419.5S195.8571428571429 857 437.5 857C679.1428571428571 857 875 661.1428571428571 875 419.5S679.1428571428571 -18 437.5 -18zM437.5 357C506.5 357 562.5 413 562.5 482S506.5 607 437.5 607C368.5 607 312.5 551 312.5 482S368.5 357 437.5 357zM437.5 294.5C333.9285714285715 294.5 250 378.4285714285714 250 482S333.9285714285715 669.5 437.5 669.5C541.0714285714286 669.5 625 585.5714285714286 625 482S541.0714285714286 294.5 437.5 294.5zM625 75.7142857142857V106.3571428571428C625 210.5714285714286 541.2142857142858 294.5 437.5 294.5C334.1428571428572 294.5 250 210.2142857142857 250 106.3571428571428V75.7142857142857H187.5V106.3571428571428C187.5 244.7857142857144 299.7142857142857 357 437.5 357C575.5714285714286 357 687.5 245.2857142857142 687.5 106.3571428571428V75.7142857142857H625zM625 75.7142857142857V106.3571428571428C625 210.5714285714286 541.2142857142858 294.5 437.5 294.5C334.1428571428572 294.5 250 210.2142857142857 250 106.3571428571428V75.7142857142857H187.5V106.3571428571428C187.5 244.7857142857144 299.7142857142857 357 437.5 357C575.5714285714286 357 687.5 245.2857142857142 687.5 106.3571428571428V75.7142857142857H625zM990.8571428571428 -89.6428571428572C1003.0714285714286 -101.8571428571429 1003.0714285714286 -121.6428571428572 990.8571428571428 -133.8571428571429S958.8571428571428 -146.0714285714285 946.6428571428572 -133.8571428571429L727.8571428571429 84.9285714285715C715.6428571428572 97.1428571428571 715.6428571428572 116.9285714285715 727.8571428571429 129.1428571428571S759.8571428571429 141.3571428571428 772.0714285714286 129.1428571428571L990.8571428571428 -89.6428571428572z" />
    <glyph glyph-name="speaker"
      unicode="&#xEA41;"
      horiz-adv-x="1000" d="M250 531.3125V308.75L685.5625000000001 52.5625C692.1250000000001 48.6875 699.625 46.6875 707.25 46.6875C730.875 46.6875 750 65.8125 750 89.4375V750.625C750 758.25 747.9375 765.75 744.125 772.3125C732.125 792.6875 705.9375 799.4375 685.5625000000001 787.5L250.0000000000001 531.3125zM187.5 567.0625L653.875 841.375C704 870.875 768.5 854.125 798 804C807.5 787.8125 812.5 769.375 812.5 750.625V89.4375C812.5 31.3125 765.375 -15.8125 707.25 -15.8125C688.5 -15.8125 670.0625 -10.8125 653.8750000000001 -1.3125L187.5000000000001 272.9999999999999V567.0625zM843.75 482H968.75C986 482 1000 468 1000 450.75S986 419.5 968.75 419.5H843.75C826.5 419.5 812.5 433.5 812.5 450.75S826.5 482 843.75 482zM878.8125 272.375L967.1875 184.0000000000001C979.375 171.8125 979.375 152 967.1875 139.8125S935.1875 127.625 922.9999999999998 139.8125L834.625 228.1875C822.4374999999999 240.375 822.4374999999999 260.1875 834.625 272.375S866.625 284.5625000000001 878.8125 272.375zM834.625 684L922.9999999999998 772.375C935.1875 784.5625 955 784.5625 967.1875 772.375S979.375 740.375 967.1875 728.1875L878.8125 639.8125C866.625 627.625 846.8125 627.625 834.625 639.8125S822.4374999999999 671.8125 834.625 684zM187.5 269.125L125 294.5V-47.3125000000001C125 -99.25 171.875 -143 218.75 -143S312.5 -99.25 312.5 -47.3125V218.3125L254.5625000000001 241.8125C251.6250000000001 234.5625 250 226.625 250 218.3125V-47.3125C250 -63.25 232.625 -80.5 218.75 -80.5S187.5 -63.25 187.5 -47.3125V269.1250000000001zM62.5 544.5V294.5H187.5V544.5H62.5zM52.625 607H250V232H52.625C23.5625 232 0 255.5625 0 284.625V554.375C0 583.4375 23.5625 607 52.625 607z" />
    <glyph glyph-name="tag-area"
      unicode="&#xEA42;"
      horiz-adv-x="1000" d="M349.125 732L582.6875 498.4375L626.8750000000001 542.625L375.0000000000001 794.5H62.5000000000001C28.0000000000001 794.5 1e-13 766.5 1e-13 732V419.5L374.9375000000001 44.5625000000001L404.625 103.2500000000001L62.5 445.3750000000001V732.0000000000001H349.125zM312.5 544.5C312.5 510 284.5 482 250 482S187.5 510 187.5 544.5C187.5 579 215.5 607 250 607S312.5 579 312.5 544.5zM562.5 169.5V-80.5H937.5V169.5H562.5zM562.5 232H937.5C972 232 1000 204 1000 169.5V-80.5C1000 -115 972 -143 937.5 -143H562.5C528 -143 500 -115 500 -80.5V169.5C500 204 528 232 562.5 232zM750 107C784.5 107 812.5 79 812.5 44.5S784.5 -18 750 -18C715.5 -18 687.5 10 687.5 44.5S715.5 107 750 107zM812.5 232V307C812.5 333.0625 785.875 357 750 357S687.5 333.0625 687.5 307V232H625V307C625 369.125 680.9375 419.5 750 419.5S875 369.125 875 307V232H812.5zM812.5 232V307C812.5 333.0625 785.875 357 750 357S687.5 333.0625 687.5 307V232H625V307C625 369.125 680.9375 419.5 750 419.5S875 369.125 875 307V232H812.5z" />
    <glyph glyph-name="tag-authorize"
      unicode="&#xEA43;"
      horiz-adv-x="1000" d="M375 544.5C375 510 347 482 312.5 482S250 510 250 544.5C250 579 278 607 312.5 607S375 579 375 544.5zM411.625 732L706.5625 437.0625L755.0625 476.9375L437.5 794.5H125C90.4999999999999 794.5 62.4999999999999 766.5 62.4999999999999 732V419.5L343.375 138.625L387.5625 182.8125000000001L125 445.3750000000001V732H411.625zM1000 294.5C1000 329 972 357 937.5 357H562.5C528 357 500 329 500 294.5V-80.5C500 -115 528 -143 562.5 -143H937.5C972 -143 1000 -115 1000 -80.5V44.5H937.5V-80.5H562.5V294.5H1000zM948.4375 224.5C961.5625000000002 235.75 981.2500000000002 234.1875 992.5 221.125S1002.1875 188.3125 989.125 177.0625L770.375 -10.4375C756.125 -22.625 734.4375000000001 -19.625 724.0625 -4.0625L661.5625 89.6875C652 104.0625000000001 655.8750000000001 123.4375000000001 670.25 133S704 138.6875 713.5625 124.3125000000001L756.5 59.9375000000001L948.4999999999998 224.5000000000001z" />
    <glyph glyph-name="tag-unauthorize"
      unicode="&#xEA44;"
      horiz-adv-x="1000" d="M375 544.5C375 510 347 482 312.5 482S250 510 250 544.5C250 579 278 607 312.5 607S375 579 375 544.5zM411.625 732L645.0625 498.5625000000001L689.25 542.75L437.5000000000001 794.5H125.0000000000001C90.5000000000001 794.5 62.5000000000001 766.5 62.5000000000001 732V419.5L343.3750000000001 138.625L384.1250000000001 186.25L125.0000000000001 445.3750000000001V732H411.6250000000001zM543.5625 7.25L849.75 313.4375C866.5 300.875 881.375 286 893.9375 269.25L587.75 -36.9375C571 -24.375 556.125 -9.5 543.5625 7.25zM718.75 357C597.9375 357 500 259.0625 500 138.25S597.9375 -80.5 718.75 -80.5C839.5625 -80.5 937.5 17.4375 937.5 138.25S839.5625 357 718.75 357zM718.75 419.5C874.0625 419.5 1000 293.5625 1000 138.25S874.0625 -143 718.75 -143C563.4375 -143 437.5 -17.0625 437.5 138.25S563.4375 419.5 718.75 419.5z" />
    <glyph glyph-name="task"
      unicode="&#xEA46;"
      horiz-adv-x="1000" d="M406.2857142857143 732H968.7857142857142C986.0714285714286 732 1000.0714285714286 718 1000.0714285714286 700.7142857142857S986.0714285714286 669.4285714285713 968.7857142857142 669.4285714285713H406.2857142857142C389 669.4285714285713 375 683.4285714285714 375 700.7142857142857S389 732 406.2857142857142 732zM406.2857142857143 -18H968.7857142857142C986.0714285714286 -18 1000.0714285714286 -32 1000.0714285714286 -49.2857142857143S986.0714285714286 -80.5714285714287 968.7857142857142 -80.5714285714287H406.2857142857142C389 -80.5714285714287 375 -66.5714285714287 375 -49.2857142857143S389 -18 406.2857142857142 -18zM406.2857142857143 357H968.7857142857142C986.0714285714286 357 1000.0714285714286 343 1000.0714285714286 325.7142857142857S986.0714285714286 294.4285714285715 968.7857142857142 294.4285714285715H406.2857142857142C389 294.4285714285715 375 308.4285714285715 375 325.7142857142857S389 357 406.2857142857142 357zM62.5 419.5V294.5H187.5V419.5H62.5zM62.5 482H187.5C222 482 250 453.9999999999999 250 419.5V294.5C250 260 222 232 187.5 232H62.5C28 232 0 260 0 294.5V419.5C0 453.9999999999999 28 482 62.5 482zM255.7857142857143 843.9285714285714C265.7857142857143 858 285.3571428571429 861.2142857142857 299.3571428571429 851.2142857142857S316.6428571428572 821.6428571428571 306.6428571428572 807.6428571428571L150.3571428571429 588.8571428571429C139.2142857142857 573.2142857142858 116.7142857142857 571.2857142857142 103 584.7142857142858L8.5 677.7142857142858C-3.7857142857143 689.7857142857143 -4 709.5714285714286 8.1428571428571 721.9285714285714S40 734.4285714285714 52.3571428571429 722.2857142857142L120.7857142857143 655L255.7857142857143 844zM62.5 44.5V-80.5H187.5V44.5H62.5zM62.5 107H187.5C222 107 250 79 250 44.5V-80.5C250 -115.0000000000001 222 -143 187.5 -143H62.5C28 -143 0 -115.0000000000001 0 -80.5V44.5C0 79 28 107 62.5 107z" />
    </font>
</defs>
</svg>
